<?xml version="1.0" standalone="no"?>
<!DOCTYPE svg PUBLIC "-//W3C//DTD SVG 1.1//EN" "http://www.w3.org/Graphics/SVG/1.1/DTD/svg11.dtd" >
<svg xmlns="http://www.w3.org/2000/svg">
<metadata>Generated by IcoMoon</metadata>
<defs>
<font id="icomoon" horiz-adv-x="1024">
<font-face units-per-em="1024" ascent="960" descent="-64" />
<missing-glyph horiz-adv-x="1024" />
<glyph unicode="&#x20;" horiz-adv-x="512" d="" />
<glyph unicode="&#xe900;" glyph-name="menu" d="M1024 215.925v-123.291h-1024v123.291h1024zM1024 509.882v-123.291h-1024v123.291h1024zM1024 803.84v-123.291h-1024v123.291h1024z" />
<glyph unicode="&#xe901;" glyph-name="cart" d="M159.549 931.627l18.84-114.048 845.611-0.025-100.641-476.003-666.25 0.039 13.728-82.835 661.033-0.033v-81.162l-124.518 0.034c23.192-22.542 37.601-54.074 37.601-88.971 0-68.517-55.544-124.062-124.062-124.062s-124.062 55.544-124.062 124.062c0 34.892 14.404 66.419 37.59 88.96h-160.979c23.186-22.541 37.59-54.069 37.59-88.96 0-68.517-55.544-124.062-124.062-124.062s-124.062 55.544-124.062 124.062c0 34.892 14.404 66.419 37.59 88.96l-98.478-0.024-111.36 672.905h-90.658v81.162h159.549zM386.968 131.523c-23.693 0-42.9-19.207-42.9-42.9s19.207-42.9 42.9-42.9c23.693 0 42.9 19.207 42.9 42.9s-19.207 42.9-42.9 42.9zM720.891 131.523c-23.693 0-42.9-19.207-42.9-42.9s19.207-42.9 42.9-42.9c23.693 0 42.9 19.207 42.9 42.9s-19.207 42.9-42.9 42.9zM923.865 736.432l-732.036-0.006 51.84-313.685 613.887 0.001 66.309 313.69z" />
<glyph unicode="&#xe902;" glyph-name="person" d="M512.478 362.667l12.795-0.146c246.786-5.701 459.303-178.231 496.961-414.437l1.766-12.084h-1024l0.625 4.38c31.265 219.119 214.819 390.901 447.114 418.44 17.405 2.063 34.716 3.283 51.887 3.691l12.851 0.155zM458.368 278.86c-157.079-18.622-287.455-116.267-345.167-249.923l-5.084-12.348h807.808l-1.904 4.882c-69.381 170.586-255.051 281.172-455.653 257.39zM513.6 960c141.385 0 256-114.615 256-256 0-138.172-109.465-250.776-246.403-255.823l-9.597-0.177c-141.385 0-256 114.615-256 256 0 138.172 109.465 250.776 246.403 255.823l9.597 0.177zM513.6 874.667c-94.257 0-170.667-76.41-170.667-170.667s76.41-170.667 170.667-170.667c94.257 0 170.667 76.41 170.667 170.667s-76.41 170.667-170.667 170.667z" />
<glyph unicode="&#xe903;" glyph-name="search" d="M416.138 960c229.827 0 416.138-186.311 416.138-416.138 0-90.153-28.82-176.631-82.15-248.275l-5.918-7.667 279.793-279.818-72.102-72.102-279.818 279.793-7.799-6.026c-55.649-41.414-120.468-68.123-189.24-77.888l-14.796-1.833-14.905-1.309-15.038-0.774-14.164-0.239c-229.827 0-416.138 186.311-416.138 416.138s186.311 416.138 416.138 416.138zM416.138 858.032c-173.511 0-314.17-140.658-314.17-314.17s140.658-314.17 314.17-314.17c173.511 0 314.17 140.658 314.17 314.17s-140.658 314.17-314.17 314.17z" />
<glyph unicode="&#xe904;" glyph-name="arrow-right" d="M544.44 748.625l82.905 83.375 396.655-394.421-396.655-394.421-82.905 83.375 253.64 252.258h-798.080v117.578h798.12z" />
<glyph unicode="&#xe905;" glyph-name="arrow-left" d="M479.56 748.625l-82.905 83.375-396.655-394.421 396.655-394.421 82.905 83.375-253.64 252.258h798.080v117.578h-798.12z" />
<glyph unicode="&#xe906;" glyph-name="arrow-up" d="M200.953 470.019l-83.375 82.905 394.421 396.655 394.421-396.655-83.375-82.905-252.258 253.64v-798.080h-117.578v798.12z" />
<glyph unicode="&#xe907;" glyph-name="arrow-down" d="M200.953 405.139l-83.375-82.905 394.421-396.655 394.421 396.655-83.375 82.905-252.258-253.64v798.080h-117.578v-798.12z" />
<glyph unicode="&#xe908;" glyph-name="arrow-2-up" d="M916.043 137.377l107.957 107.957-512 512-512-512 107.957-107.957 404.043 403.983z" />
<glyph unicode="&#xe909;" glyph-name="arrow-2-down" d="M916.043 757.333l107.957-107.957-512-512-512 512 107.957 107.957 404.043-403.983z" />
<glyph unicode="&#xe90a;" glyph-name="printer" d="M773.373 896l-0.039-222.945 250.667 0.299v-546.84l-250.667-0.317 0.039-126.414h-523.175v126.414l-250.197 0.317v546.84l250.197-0.128 0.035 222.775h523.14zM701.312 293.876h-379.051v-222.208h379.051v222.208zM951.552 600.991h-879.531v-402.944h178.176v95.829l-80.267-0.016v72.050h681.77v-72.050l-78.367 0.016v-95.829h178.219v402.944zM701.312 823.967h-379.051v-150.741h379.051v150.741z" />
<glyph unicode="&#xe90b;" glyph-name="email" d="M1024 832v-775.561h-1024v775.561h1024zM870.357 139.698l-271.036 246.624-87.321-79.491-87.364 79.491-271.036-246.624h716.757zM88.444 692.269v-496.057l272.591 248.007-272.591 248.050zM935.513 692.269l-272.591-248.050 272.591-248.007v496.057zM870.357 748.784h-716.757l358.4-326.125 358.357 326.125z" />
<glyph unicode="&#xe90c;" glyph-name="fax" d="M426.667 960v-106.667h597.333v-810.667h-597.333v-106.667h-256v106.667h-170.667v810.667h170.667v106.667h256zM341.333 874.667h-85.333v-853.333h85.333v853.333zM170.667 768h-85.333v-640h85.333v640zM938.667 768h-512v-640h512v640zM640 298.667v-85.333h-128v85.333h128zM853.333 298.667v-85.333h-128v85.333h128zM640 469.333v-85.333h-128v85.333h128zM853.333 469.333v-85.333h-128v85.333h128zM853.333 661.333v-85.333h-341.333v85.333h341.333z" />
<glyph unicode="&#xe90d;" glyph-name="phone" d="M208.837 960c28.111 0 54.839-11.751 77.19-33.871 14.977-13.825 29.493-28.572 43.318-42.858l10.628-11.031 73.705-73.762c48.388-48.388 48.388-111.061 0-159.449l-19.355-19.585c-17.051-17.281-34.563-35.254-53.457-52.535 14.055-31.106 33.41-61.752 62.213-98.158 59.448-73.042 121.43-129.494 189.633-172.813 4.455-2.765 9.421-5.428 14.695-8.124l16.9-8.61 8.957-4.695 72.812 72.581c23.272 23.272 50.461 35.484 78.803 35.484 25.974 0 50.616-10.283 71.673-29.637l6.208-6.077 126.499-126.96c23.272-23.042 35.484-50.461 35.484-79.033 0-28.341-11.982-55.991-34.793-79.724l-14.977-15.208-14.977-14.516c-10.887-10.542-21.386-20.565-31.009-31.042l-10.236-11.816c-35.023-38.019-79.724-57.143-132.951-57.143-4.608 0-9.678 0.23-14.516 0.461-68.495 4.393-130.76 27.305-180.645 49.686l-22.122 10.223c-138.711 67.051-260.141 162.214-361.064 282.722-83.181 100.001-138.942 193.32-176.269 294.012l-6.258 17.52c-13.783 40.289-28.028 95.138-23.236 153.449 3.379 38.23 17.795 71.62 42.891 99.637l7.109 7.507 78.803 79.494c23.042 22.12 50.231 33.871 78.342 33.871zM208.837 874.667c-4.206 0-9.089-1.748-14.166-5.594l-4.033-3.479-78.606-79.299c-15.361-15.361-23.42-32.619-25.294-53.794-3.372-41.023 5.561-83.351 24.459-134.318 33.918-91.496 84.857-176.528 161.678-268.885 93.28-111.382 205.116-198.971 332.187-260.398 66.45-31.492 118.127-48.427 170.281-51.784l10.457-0.364c26.721 0 47.089 7.597 64.493 23.877l3.935 4.001 6.181 7.098c4.466 5.092 9.169 10.157 14.328 15.471l26.372 25.98 14.63 14.194c4.49 4.45 8.656 8.686 12.688 12.904 8.025 8.349 10.982 15.138 10.982 20.591 0 4.189-1.833 8.979-7.051 15.022l-3.549 3.781-127.596 128.081c-6.862 7.145-11.967 9.49-16.335 9.49-3.955 0-8.688-1.833-14.754-7.043l-3.804-3.543-117.703-117.331-59.424 31.953-25.425 13.041c-5.845 3.076-11.024 5.991-16.807 9.587-76.308 48.466-145.071 111.12-210.805 191.9-29.101 36.783-50.577 69.677-67.089 103.309l-5.965 12.656-25.467 56.362 51.49 47.163 19.018 18.416 45.195 45.657c13.808 13.808 14.958 22.221 3.452 35.13l-3.452 3.639-78.679 78.841-14.581 15.122-14.172 14.286c-2.236 2.215-4.432 4.367-6.619 6.488l-13.286 12.602c-6.871 6.801-12.313 9.19-17.163 9.19z" />
<glyph unicode="&#xe90e;" glyph-name="date-registration" d="M856 880v80h-80v-80h-528v80h-80v-80h-168v-944h1024v944h-168zM944 16h-864v568h864v-568zM569.673 503.467l198.327-197.211-198.327-197.211-41.453 41.687 126.82 126.129h-399.040v58.789h399.060l-126.84 126.129 41.453 41.687zM168 800v-80h80v80h528v-80h80v80h88v-136h-864v136h88z" />
<glyph unicode="&#xe90f;" glyph-name="calendar" d="M856 880v80h-80v-80h-528v80h-80v-80h-168v-944h1024v944h-168zM944 16h-864v568h864v-568zM944 664h-864v136h88v-80h80v80h528v-80h80v80h88v-136z" />
<glyph unicode="&#xe910;" glyph-name="locate" d="M495.996 960c201.824 0 366.024-164.196 366.024-366.020 0-64.154-34.86-157.447-103.828-278.181l-17.952-30.754c-6.221-10.441-12.678-21.072-19.371-31.892l-20.787-33.023-17.719-27.338-27.034-40.477-26.309-38.172-24.937-35.222-22.918-31.627-40.832-54.674-20.828-26.952-23.508-29.668-37.836 48.124-31.857 42.196-38.392 52.6-18.549 26.115-26.026 37.495-26.913 39.961-13.587 20.704c-114.704 176.44-172.862 307.918-172.862 390.784 0 201.824 164.196 366.020 366.020 366.020zM495.996 874.667c-154.696 0-280.687-125.991-280.687-280.687 0-53.462 40.113-151.043 120.627-283.26l18.557-29.948c6.408-10.17 13.037-20.526 19.888-31.065 28.549-43.916 58.959-87.97 89.832-130.735l23.219-31.809 8.567-11.514 8.563 11.515c31.017 42.031 61.92 85.708 91.312 129.603l21.739 32.94c6.851 10.539 13.48 20.895 19.888 31.065l18.557 29.948c80.514 132.218 120.628 229.799 120.628 283.26 0 154.695-125.994 280.687-280.691 280.687zM495.996 756.052c84.894 0 153.958-69.066 153.958-153.958s-69.064-153.958-153.958-153.958c-84.894 0-153.958 69.066-153.958 153.958s69.066 153.958 153.958 153.958zM495.996 670.719c-37.764 0-68.625-30.861-68.625-68.625s30.86-68.625 68.625-68.625c37.765 0 68.625 30.86 68.625 68.625s-30.86 68.625-68.625 68.625z" />
<glyph unicode="&#xe911;" glyph-name="team" d="M835.584 434.859c98.614 0 179.894-75.89 187.79-173.014l0.524-9.166 0.102-6.236v-20.224l-6.412-6.4-265.033 0.512 1.361-4.004c3.84-12.686 6.669-25.693 8.455-38.94l1.436-13.324 0.732-13.465 0.098-7.050v-19.798l-6.41-6.4-488.925 0.734-6.39 6.4v19.064c0 25.136 3.7 49.771 10.885 73.317l1.019 3.124-268.425 0.391-6.391 6.4v19.663c0 98.614 75.89 179.894 173.014 187.79l9.166 0.524 6.236 0.102c66.258 0 126.325-34.512 160.218-89.205l5.158-8.929 2.71 2.258c36.233 29.227 79.885 47.86 126.619 53.565l11.745 1.156 11.859 0.609 7.050 0.098c56.865 0 110.807-18.994 154.503-53.209l3.040-2.514 0.668 1.157c28.826 50.552 79.574 85.181 137.639 93.225l10.32 1.141 9.403 0.545 6.236 0.102zM513.774 331.051c-50.975 0-98.634-20.447-133.54-55.879l-6.808-7.285c-6.127-6.942-11.734-14.272-16.781-21.995l-6.718-11.033-2.16-4.057c-6.9-13.1-12.223-26.977-15.838-41.347l-1.817-8.036 367.403-0.597-2.132 9.592c-3 11.671-7.111 22.974-12.248 33.745l-5.475 10.587-5.375 9.027-5.482 8.111-6.743 8.937-2.031 2.526c-31.976 38.443-77.858 62.71-127.995 67.012l-10.081 0.593-6.176 0.099zM835.451 371.5c-51.381-0.001-96.854-31.426-115.757-77.966l-1.656-4.425 3.797-5.419 233.259-0.427-0.175 0.722c-14.806 47.183-56.533 81.599-106.019 86.819l-7.875 0.579-5.574 0.116zM188.416 371.499c-52.337 0-98.197-32.423-116.562-79.626l-2.862-8.182 236.416-0.384 1.664 2.475-1.88 5.546c-16.661 43.383-56.579 74.533-103.46 79.477l-7.875 0.579-5.44 0.115zM512 778.667c92.89 0 168.192-75.302 168.192-168.192 0-87.719-67.275-160.094-153.584-167.56l-8.693-0.528-5.916-0.103c-92.89 0-168.192 75.302-168.192 168.192 0 87.719 67.275 160.094 153.584 167.56l8.693 0.528 5.916 0.103zM835.584 717.995c70.551 0 127.744-57.193 127.744-127.744 0-65.898-50.009-120.453-114.674-127.075l-7.524-0.549-5.545-0.12c-70.551 0-127.744 57.193-127.744 127.744 0 65.898 50.009 120.453 114.674 127.075l7.524 0.549 5.545 0.12zM188.416 717.995c70.551 0 127.744-57.193 127.744-127.744 0-65.898-50.009-120.453-114.674-127.075l-7.524-0.549-5.545-0.12c-70.551 0-127.744 57.193-127.744 127.744 0 65.898 50.009 120.453 114.674 127.075l7.524 0.549 5.545 0.12zM512 715.307c-57.897 0-104.832-46.935-104.832-104.832s46.935-104.832 104.832-104.832c57.897 0 104.832 46.935 104.832 104.832s-46.935 104.832-104.832 104.832zM835.584 654.635c-35.558 0-64.384-28.826-64.384-64.384s28.826-64.384 64.384-64.384c35.558 0 64.384 28.826 64.384 64.384s-28.826 64.384-64.384 64.384zM188.416 654.635c-35.558 0-64.384-28.826-64.384-64.384s28.826-64.384 64.384-64.384c35.558 0 64.384 28.826 64.384 64.384s-28.826 64.384-64.384 64.384z" />
<glyph unicode="&#xe912;" glyph-name="time" d="M512 960c282.77 0 512-229.23 512-512s-229.23-512-512-512c-282.77 0-512 229.23-512 512s229.23 512 512 512zM512 874.667c-235.641 0-426.667-191.025-426.667-426.667s191.025-426.667 426.667-426.667c235.641 0 426.667 191.025 426.667 426.667s-191.025 426.667-426.667 426.667zM469.333 746.667h85.333v-256h170.667v-85.333h-256v341.333z" />
<glyph unicode="&#xe913;" glyph-name="plus" d="M554.667 874.667v-384h384v-85.333h-384v-384h-85.333v384h-384v85.333h384v384z" />
<glyph unicode="&#xe914;" glyph-name="minus" d="M938.667 490.667v-85.333h-853.333v85.333z" />
<glyph unicode="&#xe915;" glyph-name="show-password" d="M511.994 774.863c278.382 0 496.348-293.898 505.496-306.412 8.676-11.86 8.676-27.974 0-39.844-9.148-12.502-227.114-306.402-505.496-306.402s-496.358 293.898-505.496 306.412c-8.664 11.872-8.664 27.974 0 39.846 9.138 12.502 227.114 306.4 505.496 306.4zM511.994 707.347c-205.498 0-382.728-194.964-435.234-258.79 52.574-63.77 230.176-258.836 435.234-258.836 205.498 0 382.728 194.966 435.234 258.79-52.596 63.804-230.186 258.836-435.234 258.836zM511.994 651.083c111.684 0 202.55-90.866 202.55-202.55s-90.866-202.55-202.55-202.55c-111.684 0-202.55 90.866-202.55 202.55s90.866 202.55 202.55 202.55zM511.994 583.565c-74.458 0-135.032-60.574-135.032-135.032s60.572-135.032 135.032-135.032c74.46 0 135.032 60.574 135.032 135.032s-60.574 135.032-135.032 135.032z" />
<glyph unicode="&#xe916;" glyph-name="hide-password" d="M949.013 947.2l60.34-60.34-937.919-937.919-60.34 60.34 211.328 211.349-9.578 6.624c-121.755 85.441-200.916 192.221-206.346 199.657-8.664 11.872-8.664 27.974 0 39.846l0.658 0.895 2.415 3.224c28.775 38 238.439 302.281 502.422 302.281 75.352 0 146.278-21.533 209.834-53.19l227.185 227.233zM868.453 622.354c70.454-58.927 120.052-118.368 139.817-143.531l4.474-5.764c2.523-3.294 4.121-5.459 4.746-6.314 8.676-11.86 8.676-27.974 0-39.844-9.148-12.502-227.114-306.402-505.496-306.402-43.68 0-85.873 7.236-126.006 19.485l55.501 55.48c23.024-4.793 46.578-7.449 70.505-7.449 205.498 0 382.728 194.966 435.234 258.79-22.333 27.092-67.202 77.844-127.14 127.279l48.365 48.27zM713.5 467.474c0.691-6.79 1.044-13.678 1.044-20.647 0-111.684-90.866-202.55-202.55-202.55-6.98 0-13.879 0.355-20.68 1.048l80.564 80.488c26.455 13.144 48.016 34.713 61.151 61.173l80.47 80.488zM511.994 705.641c-205.498 0-382.728-194.964-435.234-258.79 30.073-36.477 101.055-115.915 194.684-177.229l69.249 69.28-5.151 8.547c-16.611 29.377-26.098 63.291-26.098 99.379 0 111.684 90.866 202.55 202.55 202.55 39.668 0 76.71-11.463 107.987-31.251l50.909 50.973-13.276 5.69c-45.877 18.923-94.909 30.852-145.621 30.852zM511.994 581.859c-74.458 0-135.032-60.574-135.032-135.032 0-20.906 4.775-40.718 13.292-58.401l180.114 180.151-8.447 3.718c-15.451 6.17-32.3 9.565-49.927 9.565z" />
<glyph unicode="&#xe917;" glyph-name="arrange-alphabet" d="M935.364 362.667v-67.023l-233.999-288.2h243.032v-71.977h-347.064v77.805l224.382 277.127h-199.030v72.269h312.678zM307.039 960v-892.214l147.15 147.957 48.635-48.361-230.079-231.382-230.079 231.382 48.635 48.361 147.15-147.98v892.236h68.587zM812.269 960l171.055-427.201h-93.833l-37.3 97.038h-170.764l-35.26-97.038h-91.501l166.393 427.201h91.21zM765.644 860.339l-57.698-158.525h116.562l-58.864 158.525z" />
<glyph unicode="&#xe918;" glyph-name="filter" d="M977.168 960c12.978 0 21.601-13.069 15.813-25.133l-1.753-2.987-343.831-481.875c-13.634-19.315-22.218-41.659-23.958-65.238l-0.328-8.896v-348.944c0-5.478-2.817-11.895-7.647-14.421l-198.141-75.051c-10.458-4.648-20.916 2.324-23.691 14.193l-0.594 3.701v420.522c0 23.859-7.069 47.719-19.413 67.090l-4.873 7.045-343.831 481.875c-8.259 11.799-1.271 25.775 10.912 27.856l3.148 0.264h938.186zM887.040 896.043h-757.931l290.843-407.638c21.636-28.848 34.583-64.833 36.758-101.515l0.327-11.019-0.035-354.921 102.101 38.741 0.007 316.18c0 36.142 10.589 71.195 30.076 102.148l6.111 9.16 291.741 408.865z" />
<glyph unicode="&#xe919;" glyph-name="check-circle" d="M512 960c136.76 0 265.334-53.258 362.038-149.96 96.704-96.706 149.962-225.28 149.962-362.040s-53.258-265.334-149.962-362.040c-96.704-96.702-225.278-149.96-362.038-149.96s-265.336 53.258-362.040 149.962c-96.702 96.704-149.96 225.278-149.96 362.038s53.258 265.336 149.96 362.040c96.704 96.702 225.278 149.96 362.040 149.96zM715.396 707.84l-275.211-403.43-136.969 155.61-53.617-47.199 197.816-224.711 326.994 479.485-59.014 40.246z" />
<glyph unicode="&#xe91a;" glyph-name="check" d="M902.836 910.293l78.498-53.533-594.083-871.127-344.584 391.434 71.317 62.781 263.678-299.546z" />
<glyph unicode="&#xe91b;" glyph-name="close" d="M833.63 832l62.37-62.37-321.664-321.63 321.664-321.63-62.37-62.37-321.63 321.664-321.63-321.664-62.37 62.37 321.621 321.63-321.621 321.63 62.37 62.37 321.63-321.621 321.63 321.621z" />
<glyph unicode="&#xe91c;" glyph-name="dot" d="M682.667 448c0-94.257-76.41-170.667-170.667-170.667s-170.667 76.41-170.667 170.667c0 94.257 76.41 170.667 170.667 170.667s170.667-76.41 170.667-170.667z" />
<glyph unicode="&#xe91d;" glyph-name="arrow-2-left" d="M821.978 851.398l-107.957 107.957-512-512 512-512 107.957 107.957-403.983 404.043z" />
<glyph unicode="&#xe91e;" glyph-name="arrow-2-right" d="M202.022 851.398l107.957 107.957 512-512-512-512-107.957 107.957 403.983 404.043z" />
<glyph unicode="&#xe91f;" glyph-name="edit" d="M768 960l256-256-767.991-768h-256.009v256l768 768zM606.165 677.461l-520.832-520.789v-135.296h135.296l520.832 520.832-135.296 135.253zM768 839.296l-101.461-101.461 135.296-135.296 101.461 101.461-135.296 135.296z" />
<glyph unicode="&#xe920;" glyph-name="Download" d="M0 64.043h1024v-128.043h-1024zM200.953 628.893l-83.375-82.905 394.421-396.655 394.421 396.655-83.375 82.905-252.258-253.64v584.747h-117.578v-584.786z" />
<glyph unicode="&#xe921;" glyph-name="Karte" d="M1023.719 960l0.281-895.732-341.333-128.268-341.333 128.268-341.325-128v895.732l341.325 128 341.333-128 341.053 128zM383.966 852.907v-713.472l256-96.213v713.643l-256 96.043zM938.411 836.864l-213.111-80v-713.643l213.367 80.171-0.256 713.472zM298.633 852.907l-213.299-80v-713.515l213.299 80.043v713.472z" />
<glyph unicode="&#xe922;" glyph-name="Zitate" d="M0 18.469c322.973 0 408.098 167.746 408.098 478.2v380.557h-408.098v-410.601h200.293v-22.533c0-152.724-62.592-222.826-200.293-240.352v-185.271zM615.902 18.469c322.973 0 408.098 167.746 408.098 478.2v380.557h-408.098v-410.601h200.293v-22.533c0-152.724-62.592-222.826-200.293-240.352v-185.271z" />
<glyph unicode="&#xe923;" glyph-name="Youtube" d="M512 960c282.77 0 512-229.23 512-512s-229.23-512-512-512c-282.77 0-512 229.23-512 512s229.23 512 512 512zM512 874.667c-235.641 0-426.667-191.025-426.667-426.667s191.025-426.667 426.667-426.667c235.641 0 426.667 191.025 426.667 426.667s-191.025 426.667-426.667 426.667zM520.202 650.643l45.571-0.474c15.802-0.254 32.053-0.612 48.269-1.091l24.236-0.811 11.443-0.457 21.581-1.026 28.842-1.81 16.669-1.383 3.827-0.367 3.687-0.376 13.298-1.587 10.874-1.718 4.484-0.908 3.825-0.939 5.886-1.927c17.244-6.688 30.591-21.357 35.457-39.42 4.923-17.988 8.372-46.127 10.411-80.293 0.557-9.33 0.982-18.567 1.297-27.487l0.391-13.113 0.34-24.128-0.090-14.492-0.445-19.99-0.869-22.202-1.356-23.327c-2.112-30.492-5.336-55.691-9.711-72.318-5.374-19.946-21.249-35.82-41.311-41.219l-1.817-0.452-1.985-0.445-9.574-1.705-2.791-0.407-2.946-0.4-13.284-1.521-15.578-1.393-17.729-1.262-19.737-1.126-21.602-0.987-35.698-1.221-24.301-0.605-23.999-0.444-45.658-0.455-61.75 0.474c-15.782 0.255-32.011 0.612-48.208 1.091l-24.211 0.811-11.441 0.458-31.688 1.594-18.753 1.242-16.691 1.382-3.834 0.367-3.694 0.375-13.333 1.585-10.918 1.716c-3.221 0.593-6.016 1.208-8.362 1.843-20.092 5.407-35.97 21.286-41.377 41.356-4.35 16.352-7.572 41.468-9.683 71.971l-0.74 11.685-0.616 11.674-0.261 5.724-0.231 5.63-0.649 21.302-0.259 18.694 0.086 12.319 0.445 19.981 0.87 22.199 1.356 23.326c2.113 30.489 5.338 55.688 9.715 72.314 5.353 19.891 21.734 36.381 41.412 41.779l3.783 0.892 4.448 0.863 10.821 1.638 13.266 1.516 15.567 1.39 17.723 1.26 19.734 1.126 21.601 0.987 35.698 1.221 24.301 0.605 23.999 0.444 45.658 0.455h16.311zM448.227 543.922v-191.844l166.547 95.922-166.547 95.922z" />
<glyph unicode="&#xe924;" glyph-name="Telegram" d="M512 960c282.77 0 512-229.23 512-512s-229.23-512-512-512c-282.77 0-512 229.23-512 512s229.23 512 512 512zM512 874.667c-235.641 0-426.667-191.025-426.667-426.667s191.025-426.667 426.667-426.667c235.641 0 426.667 191.025 426.667 426.667s-191.025 426.667-426.667 426.667zM768.404 640.102l0.043 0.043-84.053-395.989c-6.229-28.075-22.912-34.901-46.251-21.675l-128 94.336-61.739-59.477c-6.827-6.827-12.587-12.587-25.813-12.587l9.088 130.261 237.227 214.315c10.325 9.088-2.304 14.208-15.915 5.163l-293.163-184.576-126.379 39.424c-27.435 8.704-28.032 27.435 5.803 40.661l493.653 190.336c22.912 8.277 42.923-5.589 35.499-40.235z" />
<glyph unicode="&#xe925;" glyph-name="Newsletter" d="M512 960c282.77 0 512-229.23 512-512s-229.23-512-512-512c-282.77 0-512 229.23-512 512s229.23 512 512 512zM512 874.667c-235.641 0-426.667-191.025-426.667-426.667s191.025-426.667 426.667-426.667c235.641 0 426.667 191.025 426.667 426.667s-191.025 426.667-426.667 426.667zM784 657.92v-419.781h-544v419.781h544zM555.648 397.44l-43.645-39.739-43.693 39.739-94.123-85.632h275.584l-94.123 85.632zM707.755 535.936l-96.555-87.893 96.555-87.851v175.744zM316.203 535.893v-175.659l96.512 87.808-96.512 87.851zM649.771 584.32h-275.584l137.813-125.397 137.771 125.397z" />
<glyph unicode="&#xe926;" glyph-name="Instagram" d="M512 960c282.77 0 512-229.23 512-512s-229.23-512-512-512c-282.77 0-512 229.23-512 512s229.23 512 512 512zM512 874.667c-235.641 0-426.667-191.025-426.667-426.667s191.025-426.667 426.667-426.667c235.641 0 426.667 191.025 426.667 426.667s-191.025 426.667-426.667 426.667zM570.331 709.865l16.059-0.184 27.971-0.874c2.611-0.112 5.377-0.236 8.363-0.373 26.473-1.203 46.543-5.232 65.42-12.558 18.534-6.975 35.327-17.914 49.068-31.913 14.137-13.885 25.071-30.675 31.993-49.087 7.375-18.964 11.41-39.037 12.62-65.527l0.87-21.477 0.333-12.989 0.297-33.936-0.043-85.924-0.412-30.195-1.051-27.552c-1.203-26.471-5.237-46.542-12.606-65.511-14.384-37.192-43.785-66.593-80.961-80.971-18.958-7.368-39.037-11.402-65.518-12.612l-21.528-0.873-12.99-0.334-33.885-0.298-85.884 0.043-30.161 0.412-27.635 1.051c-26.48 1.21-46.56 5.244-65.409 12.571-18.541 6.975-35.328 17.907-49.067 31.905-14.126 13.868-25.060 30.66-31.996 49.091-7.373 18.973-11.409 39.051-12.612 65.513l-0.918 22.629-0.331 13.671-0.303 49.722 0.168 78.952 0.415 22.923 0.962 24.189c1.203 26.481 5.234 46.553 12.565 65.42 6.976 18.537 17.916 35.33 31.909 49.057 13.866 14.132 30.658 25.067 49.095 32.005 16.259 6.316 33.328 10.181 54.551 11.919l22.909 1.218 22.865 0.682 12.335 0.169 112.545 0.048zM570.824 642.401l-107.363 0.009-25.138-0.399-24.604-0.957c-19.939-0.913-32.561-3.596-44.331-8.169-9.628-3.551-18.334-9.215-25.697-16.795-7.362-7.15-13.027-15.854-16.646-25.647-3.866-9.953-6.387-20.644-7.6-36.050l-1.124-22.798-0.548-19.292-0.301-49.318 0.178-79.994 0.514-23.623 0.785-19.032c0.907-19.934 3.586-32.542 8.16-44.323 3.559-9.635 9.22-18.337 16.797-25.702 7.151-7.364 15.854-13.026 25.654-16.642 11.591-4.511 24.216-7.194 44.159-8.102l23.214-0.918 32.356-0.477h94.657l29.184 0.388 26.524 1.007c19.941 0.908 32.566 3.591 44.187 8.113 19.519 7.529 34.946 22.956 42.484 42.498 4.511 11.614 7.192 24.224 8.104 44.158l1.139 32.322 0.315 41.394-0.058 76.618-0.253 22.968-0.55 18.779-0.593 13.86c-0.908 19.941-3.591 32.566-8.168 44.333-3.551 9.623-9.216 18.331-16.796 25.699-7.151 7.364-15.854 13.026-25.647 16.639-11.615 4.511-24.223 7.19-44.158 8.098l-21.155 0.855-12.824 0.32-14.855 0.18zM516.688 585.444c78.497 0 142.132-63.632 142.132-142.132s-63.635-142.132-142.132-142.132c-78.503 0-142.139 63.631-142.139 142.132s63.636 142.132 142.139 142.132zM516.688 517.985c-41.242 0-74.673-33.431-74.673-74.673s33.431-74.673 74.673-74.673c41.242 0 74.673 33.431 74.673 74.673s-33.431 74.673-74.673 74.673zM653.351 614.965c-19.324 0-34.99-15.666-34.99-34.99s15.666-34.99 34.99-34.99c19.321 0 34.982 15.663 34.99 34.988 0 19.325-15.666 34.992-34.99 34.992z" />
<glyph unicode="&#xe927;" glyph-name="contact" d="M923.496 418.56h-631.040v2.133c4.693 4.267 8.96 8.533 13.269 13.227l17.451 18.347c20.053 20.053 31.147 43.52 31.147 67.84 0 8.96-1.707 17.92-4.693 26.88v0.427c-4.267 11.093-10.197 22.613-19.2 32.853-2.133 2.56-4.267 5.12-7.253 7.68l-30.72 31.147v180.48l148.48-135.253 25.6-23.040 72.96-66.56 22.613-20.053 46.080-42.24 45.653 42.24 22.613 20.053 72.96 66.56 25.643 23.040 148.437 135.253v-381.013zM245.949 291.84c48.64-59.733 99.413-106.24 155.776-142.080 4.651-2.56 8.491-4.693 13.184-7.68l70.827-37.12 92.587 92.16 2.133 2.56c0 0 0 0.853 2.603-1.28l92.117-92.587 3.413-2.987c0 0-0.427-1.707-3.84-5.547l-38.827-37.973c-3.84-4.267-7.68-8.107-10.667-11.947l-6.4-7.253c-9.813-8.96-21.333-12.8-36.267-12.8h-7.253c-33.707 2.133-68.693 12.8-117.333 36.267-90.453 43.093-169.387 105.387-235.52 184.32-53.717 64.853-90.027 125.44-113.92 190.293-14.080 36.693-19.2 64.853-17.493 90.453 1.323 11.947 5.547 21.333 14.507 29.867l55.893 56.747 2.987 2.56c0.427-0.427 1.707-1.28 2.603-2.133l24.704-24.747 34.56-34.133 32.853-32.853 2.987-3.84c0-0.427-0.427-0.853-2.987-3.84l-32.853-32.853-4.224-4.267-53.803-49.92 23.467-51.2 3.84-8.533c7.68-15.36 16.64-30.72 27.733-46.933 6.4-9.813 14.080-20.053 22.613-30.72v0zM847.123 863.573l-238.933-218.027-239.787 218.027h478.72zM1024.189 960h-832.427v-256c-31.573 10.667-66.56 2.133-93.867-23.893l-56.747-57.6-5.547-5.547c-20.48-22.613-32.427-49.92-34.987-80.64-2.517-35.84 2.56-73.813 17.493-117.333l4.693-12.373c27.733-74.667 69.12-143.787 130.133-216.747 74.667-88.747 163.84-159.147 265.813-208.213l16.213-7.68c32-14.080 80.64-33.707 136.107-37.12 3.413-0.853 7.68-0.853 11.093-0.853 42.667 0 78.933 15.787 107.093 46.933l7.253 8.107c5.973 6.827 12.8 13.227 22.187 21.76l21.333 21.76c19.2 19.627 29.44 43.52 29.44 67.84 0 24.747-10.24 47.787-29.867 67.413l-96.427 96.427c-37.547 34.987-91.307 32.853-128.853-4.693l-45.227-44.8-8.96 4.693c-3.84 1.707-6.827 3.413-9.387 5.547-39.68 25.173-76.8 56.32-111.317 95.573h684.757v637.44z" />
<glyph unicode="&#xe928;" glyph-name="Textlink-extern" d="M314.995 680.46l-0.332 117.578 559.375 1.579-1.579-559.375-117.578 0.332 0.978 357.724-564.328-564.328-83.14 83.14 564.356 564.356z" />
<glyph unicode="&#xe929;" glyph-name="mobilephone" d="M682.667 960c70.692 0 128-57.308 128-128v-768c0-70.692-57.308-128-128-128h-341.333c-70.692 0-128 57.308-128 128v768c0 70.692 57.308 128 128 128h341.333zM682.667 874.667h-341.333c-23.564 0-42.667-19.103-42.667-42.667v-768c0-23.564 19.103-42.667 42.667-42.667h341.333c23.564 0 42.667 19.103 42.667 42.667v768c0 23.564-19.103 42.667-42.667 42.667zM512 234.667c35.346 0 64-28.654 64-64s-28.654-64-64-64c-35.346 0-64 28.654-64 64s28.654 64 64 64zM618.667 789.333v-85.333h-213.333v85.333h213.333z" />
<glyph unicode="&#xe92a;" glyph-name="facebook" d="M512 960c282.77 0 512-229.23 512-512 0-223.723-143.492-413.932-343.463-483.614-6.778-2.457-15.751-5.32-27.137-8.586l1.833 0.504c-43.883-12.761-90.198-19.808-138.087-20.279-1.717-0.025-3.431-0.025-5.146-0.025l3.26 0.010c-1.086-0.007-2.173-0.010-3.26-0.010l-3.243 0.043-6.252-0.010c-37.487 0.266-56.488 2.146-62.219 4.981-248.8 34.823-440.286 248.542-440.286 506.986 0 282.77 229.23 512 512 512zM512 874.667c-235.641 0-426.667-191.025-426.667-426.667s191.025-426.667 426.667-426.667l8.96 0.128 0.040 313.139h-110v128.2h110v94.4c0 109.4 66.8 169 164.4 169 46.8 0 87-3.4 98.6-5v-114.4h-67.2c-53 0-63.4-25.2-63.4-62.2v-81.6h127l-16.6-128.2h-110.4l0.031-289.467c166.129 58.348 285.236 216.598 285.236 402.667 0 235.641-191.025 426.667-426.667 426.667z" />
<glyph unicode="&#xe92b;" glyph-name="Sperrgut" d="M512 945.803l497.803-497.803-497.803-497.803-497.803 497.803 497.803 497.803zM512 855.294l-407.294-407.294 407.294-407.294 407.294 407.294-407.294 407.294zM554.608 316.449v-81.783h-81.783v81.783h81.783zM557.81 661.333v-100.118l-20.955-216.535h-46.276l-21.246 216.535v100.118h88.477z" />
<glyph unicode="&#xe92c;" glyph-name="Gefahrengut" d="M512 945.803l497.803-497.803-497.803-497.803-497.803 497.803 497.803 497.803zM512 855.294l-407.294-407.294 407.294-407.294 407.294 407.294-407.294 407.294zM507.387 667.733c52.741 0 100.805-15.221 135.352-43.007 38.203-30.726 58.435-74.511 58.435-126.276 0-21.954-3.582-50.002-9.394-71.841l-2.16-7.196 2.087-3.001c3.69-6.005 6.36-12.555 7.905-19.371l1.167-6.895 0.394-7.012c0-26.625-16.465-50.297-40.577-59.329-1.567-0.872-3.239-1.537-4.691-1.923l-1.973-0.361c-7.031-1.966-13.468-2.75-20.139-2.343l-6.78 0.804-4.746 1.23-7.4 0.024-0.181-1.54v-41.787c0-23.556-16.56-43.571-39.252-48.512l-5.341-0.867-5.050-0.264h-115.315c-23.556 0-43.571 16.56-48.512 39.252l-0.867 5.341-0.264 5.050v40.879l-0.081 1.171-0.372 1.633-4.236 0.169c-40.533-12.027-81.798 18.998-81.798 61.373 0 11.749 3.317 23.269 9.466 33.278l2.054 3.001-2.126 7.196c-3.875 14.559-6.758 31.878-8.25 48.311l-0.852 12.102-0.292 11.428c0 51.765 20.232 95.549 58.435 126.276 34.547 27.786 82.611 43.007 135.352 43.007zM507.387 626.105c-87.427 0-152.159-47.695-152.159-127.654 0-24.785 5.376-58.374 12.627-75.038 3.058-7.024 1.979-15.047-2.566-20.971l-2.558-2.773c-4.866-4.401-7.503-10.239-7.503-16.533 0-9.283 5.941-17.687 14.402-20.783 5.739-1.651 8.363-1.948 11.237-1.338l5.084 1.451 2.642 0.483 2.78 0.18 17.065-0.014c12.976-0.013 27.641-15.060 32.003-33.468l0.925-5.095 0.351-5.761v-40.879c0-3.049 1.735-5.76 3.988-7.060l1.768-0.693 2.257-0.261 7.997 0.014 0.018 41.154c0 10.217 7.364 18.716 17.073 20.479l3.741 0.335c8.69 0 16.277-5.365 19.423-13.58l1.066-3.688 0.325-3.547-0.004-41.154h16l0.033 41.154c0 10.217 7.364 18.716 17.073 20.479l3.741 0.335c8.69 0 16.277-5.365 19.423-13.58l1.066-3.688 0.325-3.547-0.019-41.154 8.033-0.014c3.049 0 5.76 1.735 7.060 3.988l0.693 1.768 0.261 2.257v41.789c0 18.703 11.801 36.128 25.751 41.617l3.85 1.193 3.389 0.361 18.33-0.029c1.864-0.004 3.538-0.262 5.511-0.76l1.977-0.532c2.177-0.597 3.677-0.878 5.202-0.875l2.394 0.213 4.509 1.096 3.349 1.383c7.447 3.785 12.223 11.344 12.223 19.768 0 5.035-1.687 9.779-4.854 13.728l-2.649 2.805c-6.629 5.995-8.692 15.55-5.125 23.743 7.252 16.665 12.627 50.254 12.627 75.039 0 79.959-64.732 127.654-152.159 127.654zM445.045 504.85c29.962 0 54.328-24.366 54.328-54.328 0-19.383-10.297-37.096-26.904-46.864l-5.167-2.686-5.075-1.984-19.467-6.483c-31.333-10.448-64.017 9.189-70.414 40.748l-0.818 5.367-0.27 5.415v6.486c0 25.911 18.31 47.908 43.312 53.17l5.456 0.867 5.56 0.291h19.459zM589.189 504.85c25.911 0 47.908-18.31 53.17-43.312l0.867-5.456 0.291-5.56v-6.486c0-33.056-28.997-57.819-60.947-53.904l-5.348 0.921-5.209 1.453-19.476 6.487c-22.21 7.419-37.135 28.129-37.135 51.529 0 25.968 18.264 47.924 43.296 53.173l5.463 0.864 5.569 0.29h19.459zM445.045 463.222h-19.459c-5.122 0-9.628-3.081-11.573-7.237l-0.844-2.606-0.283-2.856v-6.486c0-6.804 5.281-12.165 11.278-12.741l2.601 0.056 2.832 0.647 18.934 6.278 2.683 1.145c4.011 2.218 6.53 6.497 6.53 11.101 0 6.997-5.703 12.699-12.699 12.699zM589.189 463.222h-19.459c-7.022 0-12.7-5.677-12.701-12.699 0-3.717 1.616-7.175 4.063-9.417l1.979-1.439 2.636-1.184 18.92-6.327 2.82-0.696c5.731-0.827 11.217 2.423 13.373 7.192l0.786 2.5 0.281 2.886v6.486c0 6.997-5.703 12.699-12.699 12.699z" />
<glyph unicode="&#xe92d;" glyph-name="Kreis" d="M1024 448c0-282.77-229.23-512-512-512s-512 229.23-512 512c0 282.77 229.23 512 512 512s512-229.23 512-512z" />
<glyph unicode="&#xe92e;" glyph-name="Arrow-2-left-double" d="M916.053 959.147l107.957-107.957-403.983-404.043 403.983-404.043-107.957-107.957-512 512 512 512zM512 959.355l107.957-107.957-403.983-404.043 403.983-404.043-107.957-107.957-512 512 512 512z" />
<glyph unicode="&#xe92f;" glyph-name="Arrow-2-right-double" d="M107.957 959.792l-107.957-107.957 403.983-404.043-403.983-404.043 107.957-107.957 512 512-512 512zM512.010 960l-107.957-107.957 403.983-404.043-403.983-404.043 107.957-107.957 512 512-512 512z" />
<glyph unicode="&#xe930;" glyph-name="percent" d="M511.997 960l144.957-123.509h189.224l32.859-189.227 144.963-123.512-94.614-166.402 32.859-189.23-177.816-65.718-94.614-166.402-177.816 65.718-177.816-65.718-94.614 166.402-177.816 65.718 32.859 189.23-94.614 166.402 144.957 123.512 32.859 189.227h189.224l144.957 123.509zM626.367 751.158l-114.377 97.482-114.363-97.482-149.3 0.031-25.922-149.33-114.376-97.412 74.656-131.328-25.957-149.291 140.327-51.862 74.638-131.263 140.308 51.824 140.288-51.824 74.658 131.263 140.307 51.862-25.937 149.291 74.636 131.328-114.362 97.411-25.978 149.331-149.244-0.031zM394.354 437.609c25.732 0 46.118 8.717 61.157 26.151s22.559 44.227 22.559 80.378c0 36.335-7.52 63.174-22.559 80.516s-35.86 26.013-62.461 26.013c-25.732 0-46.118-8.717-61.157-26.151s-22.559-44.227-22.559-80.378c0-36.335 7.52-63.174 22.559-80.516s35.86-26.013 62.461-26.013zM448.861 224.826l202.119 425.841h-52.681l-203.684-425.841h54.246zM393.050 481.927c-7.65 0-13.648 3.303-17.995 9.91-5.738 8.992-8.606 26.609-8.606 52.852s2.869 43.859 8.606 52.852c4.347 6.606 10.345 9.91 17.995 9.91 7.824 0 13.909-3.395 18.256-10.185 5.564-8.809 8.346-26.334 8.346-52.576s-2.782-43.859-8.346-52.852c-4.347-6.606-10.432-9.91-18.256-9.91zM652.284 224c25.732 0 46.118 8.717 61.157 26.151s22.559 44.318 22.559 80.654c0 36.152-7.52 62.945-22.559 80.378s-35.686 26.151-61.94 26.151c-26.080 0-46.64-8.717-61.679-26.151s-22.559-44.227-22.559-80.378c0-36.335 7.52-63.22 22.559-80.654s35.86-26.151 62.461-26.151zM650.98 268.318c-7.65 0-13.648 3.395-17.995 10.185-5.738 8.809-8.606 26.334-8.606 52.576s2.869 43.859 8.606 52.852c4.173 6.606 10.171 9.91 17.995 9.91s13.909-3.303 18.256-9.91c5.564-8.992 8.346-26.609 8.346-52.852s-2.869-43.859-8.606-52.852c-4.173-6.606-10.171-9.91-17.995-9.91z" />
<glyph unicode="&#xe931;" glyph-name="info" d="M512 960c282.77 0 512-229.23 512-512s-229.23-512-512-512c-282.77 0-512 229.23-512 512s229.23 512 512 512zM512 874.667c-235.641 0-426.667-191.025-426.667-426.667s191.025-426.667 426.667-426.667c235.641 0 426.667 191.025 426.667 426.667s-191.025 426.667-426.667 426.667zM554.667 533.333v-341.333h-85.333v341.333h85.333zM554.667 704v-85.333h-85.333v85.333h85.333z" />
<glyph unicode="&#xe932;" glyph-name="delete" d="M639.136 960c35.767 0 64.864-29.984 64.864-66.84v0-82.493h277.333v-80.614h-83.521l-65.207-757.266c-1.774-20.813-18.839-36.787-39.282-36.787v0h-563.977c-20.442 0-37.494 15.962-39.282 36.773v0l-65.205 757.28h-82.193v80.614h277.333v82.493c0 34.808 25.954 63.487 58.969 66.566l5.896 0.274zM818.633 730.053h-614.592l61.421-713.439h491.736l61.435 713.439zM398.86 618.667l17.097-508.848-78.858-3.152-17.099 508.846 78.86 3.154zM625.14 618.652l78.86-3.152-17.097-508.833-78.86 3.139 17.097 508.846zM551.463 617.075v-508.848h-78.911v508.848h78.911zM626.163 879.792h-228.326l-0.013-69.125h228.309l0.029 69.125z" />
<glyph unicode="&#xe933;" glyph-name="notification" d="M558.297 241.361l41.91 433.070v200.236h-176.953v-200.236l42.492-433.070h92.551zM593.804 21.333v163.565h-163.565v-163.565h163.565z" />
<glyph unicode="&#xe934;" glyph-name="bell" d="M554.667 960l0.041-126.107c168.304-12.751 254.349-106.573 258.137-281.468l0.131-12.207c0-189.156 25.417-343.422 76.25-462.799l6.775-15.373-219.226-0.003c-19.618-72.615-85.956-126.043-164.774-126.043s-145.156 53.428-164.774 126.043l-219.226 0.003c53.044 116.343 80.671 267.575 82.881 453.697l0.144 24.475c0 182.754 86.103 280.647 258.31 293.678l-0.002 126.104h85.333zM584.749 62.041h-145.497c15.013-24.422 41.979-40.707 72.749-40.707s57.736 16.286 72.749 40.707zM512.007 750.080l-10.568-0.097c-142.497-2.557-202.22-60.073-205.049-199.179l-0.106-10.586c0-140.855-13.537-264.594-41.099-371.301l-5.862-21.503h525.324l-1.739 6.158c-28.528 103.645-43.388 223.873-45.037 360.781l-0.155 25.866c0 143.202-56.247 204.149-193.82 209.459l-10.471 0.294-11.419 0.108z" />
<glyph unicode="&#xe935;" glyph-name="rotate" d="M426.667 960c70.692 0 128-57.308 128-128v-341.333h-85.333v341.333c0 23.564-19.103 42.667-42.667 42.667h-298.667c-23.564 0-42.667-19.103-42.667-42.667v-341.333h-85.333v341.333c0 70.692 57.308 128 128 128h298.667zM384 789.333v-85.333h-213.333v85.333h213.333zM1024 64c0-70.692-57.308-128-128-128h-768c-70.692 0-128 57.308-128 128v426.667h896c70.692 0 128-57.308 128-128v-298.667zM938.667 64v298.667c0 23.564-19.103 42.667-42.667 42.667h-768c-23.564 0-42.667-19.103-42.667-42.667v-298.667c0-23.564 19.103-42.667 42.667-42.667h768c23.564 0 42.667 19.103 42.667 42.667zM298.667 213.333c0-35.346-28.654-64-64-64s-64 28.654-64 64c0 35.346 28.654 64 64 64s64-28.654 64-64zM853.333 106.667h-85.333v213.333h85.333v-213.333zM725.333 960c91.4 0 166.019-71.849 170.458-162.149l0.209-8.518v-102.827l58.346 58.329 57.158-57.158-158.17-158.17-158.17 158.17 57.158 57.158 58.345-58.329v102.827c0 44.986-34.811 81.842-78.965 85.099l-6.369 0.234h-85.333v85.333h85.333z" />
<glyph unicode="&#xe936;" glyph-name="file_upload" horiz-adv-x="768" d="M573.059 960l194.941-218.179v-805.821h-768v1024h573.059zM472.192 874.667h-386.859v-853.333h597.333v640h-210.449l-0.025 213.333zM597.333 192v-85.333h-426.667v85.333h426.667zM434.29 602.88l-0.019-170.553 83.709 84.094 64.993-64.627-194.512-195.614-194.512 195.614 64.994 64.628 83.68-84.137 0.009 170.596h91.658zM557.525 849.323v-102.656h91.691l-91.691 102.656z" />
<glyph unicode="&#xe937;" glyph-name="heart-filled" d="M735.317 917.333c77.758-0.126 151.977-32.519 204.942-89.449 109.058-117.626 111.594-297.929 7.611-418.47l-7.609-8.507-428.261-422.241-428.255 422.241c-111.661 120.44-111.661 306.574 0 427.013 4.666 5.022 9.514 9.868 14.534 14.534 110.589 102.754 282.056 99 388.077-6.624l7.639-7.91 18.079-19.104 18.079 19.104c53.047 56.941 127.342 89.316 205.163 89.413z" />
<glyph unicode="&#xe938;" glyph-name="heart-unfilled" d="M735.317 917.333c77.758-0.126 151.977-32.519 204.942-89.449 109.058-117.626 111.594-297.929 7.611-418.47l-7.609-8.507-428.261-422.241-428.255 422.241c-111.661 120.44-111.661 306.574 0 427.013 4.666 5.022 9.514 9.868 14.534 14.534 110.589 102.754 282.056 99 388.077-6.624l7.639-7.91 18.079-19.104 18.079 19.104c53.047 56.941 127.342 89.316 205.163 89.413zM735.275 832.043l-10.652-0.354c-46.627-2.636-90.812-21.908-124.824-54.633l-7.665-7.789-80.059-84.598-80.593 85.168c-73.18 78.762-196.356 83.286-275.105 10.116-3.509-3.261-6.882-6.635-10.054-10.048-78.855-85.055-81.245-215.097-9.599-300.372l6.934-7.861 368.343-363.155 365.685 360.407c78.846 85.042 81.235 215.072 7.257 302.742l-7.159 8.092c-34.397 36.972-81.677 59.072-131.819 61.925l-10.689 0.358z" />
<glyph unicode="&#xe939;" glyph-name="more" d="M597.333 960v-170.667h-170.667v170.667zM597.333 533.333v-170.667h-170.667v170.667zM597.333 106.667v-170.667h-170.667v170.667z" />
<glyph unicode="&#xe93a;" glyph-name="comparison-1" d="M682.667 691.772l-269.746 268.228-68.552-68.94 151.515-150.655-495.883-0.021v-97.222l495.883 0.036-151.514-150.713 68.552-68.94zM341.333 204.092l269.746 268.228 68.552-68.94-151.515-150.655 495.883-0.021v-97.222l-495.883 0.036 151.514-150.713-68.552-68.94z" />
<glyph unicode="&#xe93b;" glyph-name="comparison-2" d="M640 960v-256h384v-85.333h-469.333v-597.333h469.333v-85.333h-554.667v256h-469.333v85.333h469.333v426.667h85.333v170.667h-554.667v85.333h640zM853.269 537.506l58.676-59.009-122.717-122.017 234.771-0.041v-83.216l-234.771 0.014 122.716-122.073-58.676-59.008-223.936 222.675 223.936 222.675zM175.192 793.506l223.936-222.675-223.936-222.675-58.676 59.008 122.716 122.073-239.232-0.014v83.216l239.232 0.041-122.717 122.017 58.676 59.009z" />
<glyph unicode="&#xe93c;" glyph-name="language" d="M504.255 959.845h15.082c143.565-1.936 279.43-64.238 374.353-171l12.748-14.842 2.826-3.486c150.036-184.19 152.922-446.902 8.82-633.907l-11.601-14.56-2.932-3.472c-95.425-113.82-235.7-180.423-383.808-182.417l-7.697-0.127-7.392 0.118c-149.050 2.012-289.769 69.098-384.376 182.719l-1.157 1.276-2.552 3.191-3.485 5.046 1.518-2.645-7.863 9.876c-139.472 180.148-142.226 430.726-6.552 615.577l8.48 11.234 8.826 11.063-1.909-1.948 2.533 3.173 1.282 1.424c95.42 114.569 236.168 181.683 384.856 183.706zM477.227 11.136v196.224l-2.319-0.109c-39.863-1.777-79.508-6.732-118.559-14.811l-24.317-5.474 0.973-2.559c34.401-90.059 84.597-151.221 139.033-171.515l5.189-1.755zM546.731 207.36v-196.224l5.224 1.755c51.844 19.328 99.841 75.724 134.012 158.848l5.959 15.227-0.926 0.252c-38.797 9.327-78.265 15.54-118.026 18.586l-26.243 1.556zM266.155 167.211l-13.215-5.004c-16.122-6.417-31.895-13.682-47.25-21.764l-7.46-4.080 4.27-4.341c34.448-33.802 74.093-61.643 117.288-82.534l10.709-4.944-2.093 2.846c-22.223 30.99-41.755 67.547-57.952 108.511l-4.296 11.31zM757.803 167.253l-4.261-11.353c-16.198-40.963-35.729-77.52-57.952-108.511l-2.171-2.846 10.767 4.946c43.193 20.885 82.841 48.708 117.305 82.485l4.237 4.388-7.428 4.076c-15.342 8.099-31.106 15.371-47.226 21.784l-13.272 5.030zM219.093 413.269h-148.181l0.793-9.456c7.232-72.792 32.503-142.648 73.514-203.22l7.23-10.257 0.575 0.315c23.509 13.686 47.99 25.611 73.241 35.68l18.984 7.184-1.121 4.338c-14.247 56.236-22.6 113.758-24.926 171.668l-0.107 3.749zM953.045 413.269h-148.181l-0.074-3.762c-2.33-57.934-10.685-115.469-24.927-171.674l-1.153-4.319 19.005-7.181c18.931-7.544 37.431-16.126 55.417-25.706l18.335-10.249 7.309 10.284c41.010 60.55 66.28 130.387 73.512 203.159l0.757 9.448zM735.36 413.269h-188.629v-136.405l2.331-0.045c46.754-1.899 93.242-7.827 138.949-17.711l24.523-5.711 0.455 1.668c10.948 44.095 18.018 89.048 21.136 134.345l1.236 23.858zM477.227 413.269h-188.672l0.085-1.175c2.098-52.944 9.592-105.536 22.365-156.959l0.463-1.696 1.759 0.45c53.003 13.001 107.171 20.678 161.699 22.916l2.302 0.058v136.405zM878.776 695.333l-7.266 10.288-0.566-0.342c-23.512-13.655-47.988-25.559-73.229-35.618l-19.005-7.134 1.153-4.366c14.243-56.205 22.597-113.739 24.927-171.674l0.074-3.715h148.181l-0.757 9.401c-7.232 72.772-32.502 142.609-73.512 203.159zM311.467 642.603l-0.463-1.742c-10.948-44.077-18.018-89.013-21.135-134.293l-1.314-23.794h188.672v136.405l-2.302 0.011c-46.738 1.918-93.212 7.832-138.915 17.67l-24.543 5.743zM712.533 642.645l-1.737-0.486c-53.004-13.068-107.189-20.768-161.735-22.982l-2.331-0.041v-136.363h188.629l-0.007 1.137c-1.798 45.398-7.561 90.537-17.214 134.904l-5.606 23.832zM152.448 705.707l-7.23-10.304c-41.011-60.572-66.281-130.429-73.514-203.22l-0.793-9.409h148.181l0.107 3.706c2.327 57.916 10.681 115.433 24.928 171.618l1.119 4.345-18.994 7.194c-18.931 7.567-37.432 16.171-55.416 25.774l-18.39 10.296zM546.731 884.907v-196.224l2.354 0.062c39.863 1.777 79.508 6.732 118.559 14.811l24.282 5.478-0.938 2.555c-34.401 90.059-84.597 151.221-139.033 171.515l-5.224 1.802zM477.227 884.907l-5.189-1.802c-54.436-20.294-104.632-81.456-139.033-171.515l-0.973-2.555 0.961-0.256c38.797-9.327 78.265-15.54 118.026-18.586l26.208-1.509v196.224zM693.419 851.499l2.171-2.892c22.223-30.99 41.755-67.547 57.952-108.511l4.261-11.306 13.272 4.983c16.119 6.413 31.884 13.685 47.226 21.784l7.428 4.123-4.237 4.341c-34.464 33.777-74.113 61.6-117.305 82.485l-10.767 4.993zM330.496 851.499l-10.709-4.99c-43.196-20.891-82.84-48.732-117.288-82.534l-4.27-4.294 7.46-4.127c15.356-8.082 31.128-15.347 47.25-21.764l13.215-4.957 4.296 11.263c16.198 40.963 35.729 77.52 57.952 108.511l2.093 2.892z" />
</font>
</defs>
</svg>
