<?xml version="1.0" standalone="no"?>
<!DOCTYPE svg PUBLIC "-//W3C//DTD SVG 1.1//EN" "http://www.w3.org/Graphics/SVG/1.1/DTD/svg11.dtd" >
<svg xmlns="http://www.w3.org/2000/svg" xmlns:xlink="http://www.w3.org/1999/xlink" version="1.1">
<metadata>
Created by FontForge 20170731 at Thu Jan  1 09:20:04 1970
 By Aleksey,,,
Typeface (c) The Monotype Corporation plc. Data (c) The Monotype Corporation plc/Type Solutions Inc. 1990-1992. All Rights Reserved
</metadata>
<defs>
<font id="Arial-BoldMT" horiz-adv-x="1139" >
  <font-face 
    font-family="Arial"
    font-weight="700"
    font-stretch="normal"
    units-per-em="2048"
    panose-1="2 11 7 4 2 2 2 2 2 4"
    ascent="1638"
    descent="-410"
    x-height="1062"
    cap-height="1466"
    bbox="-343 -431 2048 1869"
    underline-thickness="215"
    underline-position="-538"
    unicode-range="U+0020-FB02"
  />
<missing-glyph horiz-adv-x="1536" 
d="M256 0v1280h1024v-1280h-1024zM288 32h960v1216h-960v-1216z" />
    <glyph glyph-name="fi" unicode="fi" horiz-adv-x="1251" 
d="M31 1062h156v80q0 135 28 200q29 67 105 107q77 42 194 42q120 0 235 -36l-38 -196q-65 16 -129 16q-62 0 -88 -29.5t-26 -108.5v-75h210v-221h-210v-841h-281v841h-156v221zM820 1206v260h281v-260h-281zM820 0v1062h281v-1062h-281z" />
    <glyph glyph-name="fl" unicode="fl" horiz-adv-x="1251" 
d="M31 1062h156v80q0 135 28 200q29 67 105 107q77 42 194 42q120 0 235 -36l-38 -196q-65 16 -129 16q-62 0 -88 -29.5t-26 -108.5v-75h210v-221h-210v-841h-281v841h-156v221zM820 0v1466h281v-1466h-281z" />
    <glyph glyph-name=".notdef" horiz-adv-x="1536" 
d="M256 0v1280h1024v-1280h-1024zM288 32h960v1216h-960v-1216z" />
    <glyph glyph-name=".null" horiz-adv-x="0" 
 />
    <glyph glyph-name="nonmarkingreturn" horiz-adv-x="682" 
 />
    <glyph glyph-name="space" unicode=" " horiz-adv-x="569" 
 />
    <glyph glyph-name="exclam" unicode="!" horiz-adv-x="682" 
d="M257 378l-73 744v344h304v-344l-72 -744h-159zM196 0v281h281v-281h-281z" />
    <glyph glyph-name="quotedbl" unicode="&#x22;" horiz-adv-x="971" 
d="M165 945l-53 273v248h306v-248l-46 -273h-207zM616 945l-53 273v248h306v-248l-46 -273h-207z" />
    <glyph glyph-name="numbersign" unicode="#" 
d="M154 365h-136v220h180l60 295h-240v221h285l79 390h224l-79 -390h221l77 390h232l-80 -390h138v-221h-183l-60 -295h243v-220h-288l-79 -390h-223l77 390h-222l-79 -390h-226zM483 880l-59 -295h222l58 295h-221z" />
    <glyph glyph-name="dollar" unicode="$" 
d="M489 217v419q-379 109 -379 445q0 165 103 275q103 112 276 129v99h145v-99q158 -19 252.5 -108t120.5 -240l-253 -33q-22 118 -120 160v-391q239 -64 327 -169q87 -104 87 -265q0 -180 -110 -305q-109 -123 -304 -152v-187h-145v182q-175 21 -282 130t-137 304l261 28
q15 -78 58.5 -136.5t99.5 -85.5zM489 1267q-59 -20 -94 -68t-35 -106q0 -55 32.5 -100t96.5 -72v346zM634 203q76 14 122 69q47 56 47 131q0 141 -169 190v-390z" />
    <glyph glyph-name="percent" unicode="%" horiz-adv-x="1821" 
d="M89 1104q0 193 84.5 290t236.5 97q156 0 241 -96.5t85 -290.5q0 -193 -84.5 -290t-236.5 -97q-156 0 -241 96.5t-85 290.5zM308 1106q0 -142 33 -192q25 -36 69 -36q45 0 70 36q32 50 32 192t-32 191q-25 37 -70 37q-44 0 -69 -36q-33 -50 -33 -192zM624 -56h-208
l781 1547h202zM1078 329q0 193 84.5 290t238.5 97t239 -97t85 -290t-84.5 -290.5t-236.5 -97.5q-156 0 -241 97t-85 291zM1297 330q0 -143 33 -191q25 -37 69 -37q45 0 69 36q33 50 33 192t-32 192q-25 36 -70 36t-69 -36q-33 -50 -33 -192z" />
    <glyph glyph-name="ampersand" unicode="&#x26;" horiz-adv-x="1479" 
d="M1446 179l-170 -217q-124 62 -240 168q-90 -81 -189 -118q-102 -38 -238 -38q-274 0 -412 154q-107 119 -107 274q0 282 335 449q-151 180 -151 322q0 134 106 225q106 93 304 93q191 0 297 -97q107 -98 107 -237q0 -89 -53 -169t-214 -181l204 -269q37 67 62 167
l254 -58q-37 -135 -66 -198t-60 -104q48 -45 121 -97q74 -52 110 -69zM681 976l76 58q84 64 84 129q0 55 -41.5 92.5t-108.5 37.5q-65 0 -104 -32.5t-39 -78.5q0 -53 64 -126zM571 671q-94 -47 -143.5 -116t-49.5 -143q0 -90 59 -149q60 -57 160 -57q66 0 127 26t133 86z
" />
    <glyph glyph-name="quotesingle" unicode="'" horiz-adv-x="487" 
d="M145 945l-53 273v248h306v-248l-46 -273h-207z" />
    <glyph glyph-name="parenleft" unicode="(" horiz-adv-x="682" 
d="M613 -431h-193q-154 232 -233 480q-80 251 -80 482q0 289 99 547q85 223 218 413h192q-136 -303 -189 -516q-51 -211 -51 -450q0 -163 30 -336q32 -173 84 -327q35 -104 123 -293z" />
    <glyph glyph-name="parenright" unicode=")" horiz-adv-x="682" 
d="M69 -431q83 179 117 273t63 219q57 241 57 464q0 239 -51 450q-50 211 -188 516h191q153 -219 235.5 -460t82.5 -485q0 -210 -66 -448q-75 -269 -247 -529h-194z" />
    <glyph glyph-name="asterisk" unicode="*" horiz-adv-x="797" 
d="M245 792l-151 117q75 84 150 155q21 20 39 38q-22 4 -143 33q-88 22 -112 31l59 176q131 -52 234 -117q-24 163 -24 266h178q0 -73 -27 -268q22 8 86 39q105 47 166 70l53 -181q-102 -23 -257 -49l120 -135q25 -28 57 -67l-153 -101l-135 223q-70 -124 -140 -230z" />
    <glyph glyph-name="plus" unicode="+" horiz-adv-x="1196" 
d="M469 211v381h-384v263h384v381h256v-381h385v-263h-385v-381h-256z" />
    <glyph glyph-name="comma" unicode="," horiz-adv-x="569" 
d="M140 281h281v-201q0 -122 -21 -192q-21 -71 -80 -127q-60 -57 -148 -88l-55 116q84 28 120.5 76.5t38.5 134.5h-136v281z" />
    <glyph glyph-name="hyphen" unicode="-" horiz-adv-x="682" 
d="M115 391v281h552v-281h-552z" />
    <glyph glyph-name="period" unicode="." horiz-adv-x="569" 
d="M147 0v281h281v-281h-281z" />
    <glyph glyph-name="slash" unicode="/" horiz-adv-x="569" 
d="M-3 -25l363 1516h211l-367 -1516h-207z" />
    <glyph glyph-name="zero" unicode="0" 
d="M562 1472q213 0 333 -152q143 -181 143 -597q0 -417 -144 -598q-119 -150 -332 -150q-214 0 -345 164q-131 166 -131 587q0 414 144 596q118 150 332 150zM562 1239q-114 0 -153 -149q-29 -111 -29 -367t26 -355q26 -96 65 -128q41 -32 91 -32q114 0 153 149
q29 110 29 366t-26 354q-26 97 -66 129q-39 33 -90 33z" />
    <glyph glyph-name="one" unicode="1" 
d="M806 0h-281v1059q-155 -144 -363 -213v255q111 37 239 136q129 100 177 235h228v-1472z" />
    <glyph glyph-name="two" unicode="2" 
d="M1036 261v-261h-985q16 148 96 280q78 130 316 352q188 174 233 240q58 86 58 172q0 93 -50 144t-140 51q-185 0 -200 -229l-280 28q26 233 157 333q133 101 330 101q217 0 341 -117t124 -291q0 -99 -35.5 -188t-112.5 -188q-55 -70 -184 -187q-131 -119 -169 -162
q-35 -41 -57 -78h558z" />
    <glyph glyph-name="three" unicode="3" 
d="M77 389l272 33q12 -102 68.5 -158t139.5 -56q87 0 146 66q60 66 60 178q0 106 -57 168t-139 62q-54 0 -129 -21l31 229q112 -3 173 48.5t61 140.5q0 74 -44 118t-117 44q-74 0 -124 -51t-61 -145l-259 44q27 133 82 212.5t151 124.5q96 46 219 46q208 0 332 -132
q103 -107 103 -244q0 -193 -211 -308q126 -27 201 -121q76 -94 76 -227q0 -192 -141 -329q-140 -136 -351 -136q-199 0 -330 114q-131 116 -152 300z" />
    <glyph glyph-name="four" unicode="4" 
d="M638 0v295h-600v246l636 931h236v-930h182v-247h-182v-295h-272zM638 542v501l-337 -501h337z" />
    <glyph glyph-name="five" unicode="5" 
d="M91 377l280 29q12 -95 71 -151q58 -55 136 -55q87 0 149 71q61 71 61 216q0 131 -59 200.5t-159 69.5q-121 0 -217 -107l-228 33l144 763h743v-263h-530l-44 -249q96 47 192 47q187 0 317 -136t130 -353q0 -180 -105 -323q-143 -194 -397 -194q-204 0 -331 109
q-128 110 -153 293z" />
    <glyph glyph-name="six" unicode="6" 
d="M1039 1107l-272 -30q-19 164 -161 164q-89 0 -151 -80q-60 -78 -77 -333q105 124 261 124q176 0 301 -134q126 -134 126 -346q0 -224 -132 -361q-132 -136 -339 -136q-223 0 -365 172q-143 173 -143 566q0 402 149 581q148 178 387 178q169 0 277.5 -94.5t138.5 -270.5z
M402 494q0 -137 63 -212q63 -74 144 -74q78 0 130 61t52 200q0 142 -56 209q-55 67 -140 67q-82 0 -137 -64q-56 -64 -56 -187z" />
    <glyph glyph-name="seven" unicode="7" 
d="M87 1185v261h961v-204q-120 -118 -242 -336q-124 -221 -188 -466q-65 -246 -63 -440h-271q8 306 125 620q118 314 317 565h-639z" />
    <glyph glyph-name="eight" unicode="8" 
d="M328 791q-105 44 -156.5 123.5t-51.5 179.5q0 164 114 271q116 107 326 107q208 0 324 -107t116 -271q0 -102 -53 -181.5t-149 -121.5q121 -48 185 -142t64 -218q0 -203 -130 -330q-128 -127 -344 -127q-199 0 -333 105q-157 124 -157 340q0 118 59 218q58 100 186 154z
M386 1074q0 -83 47 -130.5t127 -47.5q81 0 128.5 48t47.5 131q0 79 -47.5 126.5t-125.5 47.5q-81 0 -129 -48t-48 -127zM360 446q0 -116 59 -181q60 -65 149 -65q87 0 144 62q57 63 57 181q0 104 -58 165q-59 63 -147 63q-103 0 -154 -71q-50 -71 -50 -154z" />
    <glyph glyph-name="nine" unicode="9" 
d="M93 339l272 30q19 -163 163 -163q86 0 148 80q61 79 78 332q-106 -123 -265 -123q-173 0 -299 133q-125 134 -125 348q0 222 132 359q134 137 338 137q223 0 366 -173t143 -567q0 -401 -149 -580q-148 -178 -388 -178q-173 0 -278.5 92t-135.5 273zM729 953
q0 136 -63 211q-62 75 -144 75q-77 0 -130 -62q-51 -61 -51 -201q0 -141 56 -209q55 -66 140 -66q81 0 136 64q56 65 56 188z" />
    <glyph glyph-name="colon" unicode=":" horiz-adv-x="682" 
d="M201 781v281h281v-281h-281zM201 0v281h281v-281h-281z" />
    <glyph glyph-name="semicolon" unicode=";" horiz-adv-x="682" 
d="M193 781v281h281v-281h-281zM193 281h281v-201q0 -122 -21 -192q-21 -71 -80 -127q-60 -57 -148 -88l-55 116q84 27 120.5 77t38.5 134h-136v281z" />
    <glyph glyph-name="less" unicode="&#x3c;" horiz-adv-x="1196" 
d="M1100 167l-1005 437v242l1005 435v-285l-701 -268l701 -278v-283z" />
    <glyph glyph-name="equal" unicode="=" horiz-adv-x="1196" 
d="M85 816v258h1025v-258h-1025zM85 372v259h1025v-259h-1025z" />
    <glyph glyph-name="greater" unicode="&#x3e;" horiz-adv-x="1196" 
d="M95 166v283l702 276l-702 273v281l1006 -435v-240z" />
    <glyph glyph-name="question" unicode="?" horiz-adv-x="1251" 
d="M751 378h-255q-1 37 -1 67q0 124 41 204q40 79 164 180q125 102 147 131q37 49 37 108q0 82 -66 140q-65 59 -176 59q-109 0 -180 -62t-98 -185l-258 32q11 179 152 304q143 125 372 125q243 0 385 -127q143 -126 143 -294q0 -93 -53 -176q-55 -86 -224 -226
q-88 -73 -111 -119q-21 -44 -19 -161zM496 0v281h281v-281h-281z" />
    <glyph glyph-name="at" unicode="@" horiz-adv-x="1997" 
d="M1777 19h213q-101 -203 -307 -318q-237 -132 -578 -132q-331 0 -570 112q-240 111 -357 328t-117 474q0 282 133 523q133 243 364 364q232 122 528 122q250 0 448 -98q195 -97 299 -279q104 -181 104 -394q0 -256 -157 -461q-197 -260 -505 -260q-81 0 -123.5 28
t-57.5 86q-118 -114 -272 -114q-166 0 -276 114q-109 115 -109 305q0 235 132 429q161 236 410 236q178 0 263 -136l25 111h264l-151 -717q-14 -70 -14 -88q0 -24 11 -37t28 -13q48 0 124 58q102 76 165 204t63 265q0 246 -178 411q-178 166 -497 166q-268 0 -457.5 -109.5
t-286.5 -312.5q-95 -201 -95 -417q0 -212 106 -384t299 -252q195 -80 441 -80q478 0 688 266zM696 430q0 -127 51 -187q53 -60 128 -60q58 0 107 28q38 19 75 63q54 64 91 178q39 117 39 218q0 112 -53 173q-52 61 -132 61q-86 0 -159 -67q-72 -65 -110 -189
q-37 -121 -37 -218z" />
    <glyph glyph-name="A" unicode="A" horiz-adv-x="1479" 
d="M1471 0h-322l-128 333h-586l-121 -333h-314l571 1466h313zM926 580l-202 544l-198 -544h400z" />
    <glyph glyph-name="B" unicode="B" horiz-adv-x="1479" 
d="M150 1466h586q174 0 259 -15q85 -13 153 -60q71 -48 114.5 -125t43.5 -169q0 -103 -56 -189t-150 -129q133 -39 205.5 -132.5t72.5 -221.5q0 -99 -47 -195q-46 -94 -127 -151q-80 -55 -198 -69q-84 -9 -357 -10h-499v1466zM446 1222v-339h194q168 0 215 5
q76 9 119.5 52.5t43.5 114.5q0 69 -38 111t-111 51q-48 5 -253 5h-170zM446 639v-392h274q160 0 203 9q68 12 108.5 59.5t40.5 123.5q0 136 -125 179q-60 21 -262 21h-239z" />
    <glyph glyph-name="C" unicode="C" horiz-adv-x="1479" 
d="M1087 539l287 -91q-130 -473 -609 -473q-293 0 -480 199q-188 200 -188 546q0 366 189 568q189 203 497 203q269 0 437 -159q100 -94 150 -270l-293 -70q-25 113 -109 180q-82 66 -200 66q-163 0 -265 -117q-101 -118 -101 -379q0 -278 100 -396t260 -118q121 0 205 77
t120 234z" />
    <glyph glyph-name="D" unicode="D" horiz-adv-x="1479" 
d="M148 1466h541q185 0 279 -28q128 -38 220.5 -134.5t140.5 -238.5q48 -139 48 -346q0 -181 -45 -312q-55 -160 -157 -259q-76 -75 -208 -117q-96 -31 -262 -31h-557v1466zM444 1218v-971h221q121 0 179 14q73 18 119 61q48 44 78 141q30 99 30 269t-30 261t-84 142
t-137 69q-64 14 -243 14h-133z" />
    <glyph glyph-name="E" unicode="E" horiz-adv-x="1366" 
d="M149 0v1466h1087v-248h-791v-325h736v-247h-736v-399h819v-247h-1115z" />
    <glyph glyph-name="F" unicode="F" horiz-adv-x="1251" 
d="M151 0v1466h1005v-248h-709v-347h612v-248h-612v-623h-296z" />
    <glyph glyph-name="G" unicode="G" horiz-adv-x="1593" 
d="M831 539v247h638v-584q-93 -90 -270 -159q-177 -68 -357 -68q-230 0 -401 96q-172 98 -257 276q-86 181 -86 391q0 228 96 407q96 178 281 273q140 73 351 73q274 0 426 -115q155 -114 198 -316l-294 -55q-31 109 -117 171t-213 62q-194 0 -309 -123q-114 -123 -114 -365
q0 -261 116 -392q115 -130 304 -130q93 0 186 36q95 38 161 89v186h-339z" />
    <glyph glyph-name="H" unicode="H" horiz-adv-x="1479" 
d="M150 0v1466h296v-577h580v577h296v-1466h-296v641h-580v-641h-296z" />
    <glyph glyph-name="I" unicode="I" horiz-adv-x="569" 
d="M140 0v1466h296v-1466h-296z" />
    <glyph glyph-name="J" unicode="J" 
d="M678 1466h295v-928q0 -181 -32 -280q-44 -128 -156 -206q-113 -77 -298 -77q-218 0 -334.5 122t-117.5 356l279 32q4 -124 37 -178q48 -79 146 -79q99 0 140 56q41 58 41 235v947z" />
    <glyph glyph-name="K" unicode="K" horiz-adv-x="1479" 
d="M153 0v1466h296v-651l598 651h398l-552 -571l582 -895h-383l-403 688l-240 -245v-443h-296z" />
    <glyph glyph-name="L" unicode="L" horiz-adv-x="1251" 
d="M157 0v1454h296v-1207h736v-247h-1032z" />
    <glyph glyph-name="M" unicode="M" horiz-adv-x="1706" 
d="M145 0v1466h443l266 -1000l263 1000h444v-1466h-275v1154l-291 -1154h-285l-290 1154v-1154h-275z" />
    <glyph glyph-name="N" unicode="N" horiz-adv-x="1479" 
d="M152 0v1466h288l600 -979v979h275v-1466h-297l-591 956v-956h-275z" />
    <glyph glyph-name="O" unicode="O" horiz-adv-x="1593" 
d="M89 724q0 226 67 376q49 111 136 201q87 89 190 132q135 58 316 58q324 0 518 -201q195 -201 195 -559q0 -356 -193 -556q-194 -200 -516 -200q-327 0 -520 199t-193 550zM394 734q0 -250 115 -378q116 -128 292 -128q178 0 290 127q114 128 114 383q0 252 -111 376
q-109 124 -293 124q-183 0 -295 -126q-112 -124 -112 -378z" />
    <glyph glyph-name="P" unicode="P" horiz-adv-x="1366" 
d="M149 0v1466h475q271 0 352 -22q125 -33 211 -144q85 -109 85 -285q1 -78 -18 -146t-51.5 -116.5t-76 -86t-88.5 -59.5t-93 -33q-107 -21 -307 -21h-193v-553h-296zM445 1218v-416h162q174 0 234 23q59 23 92 72q34 49 34 114q0 78 -46 131t-120 66q-50 10 -213 10h-143z
" />
    <glyph glyph-name="Q" unicode="Q" horiz-adv-x="1593" 
d="M1329 186q108 -77 237 -124l-109 -209q-61 18 -131 55q-21 11 -197 130q-144 -63 -319 -63q-338 0 -530 199q-191 200 -191 559t192 558q192 200 521 200q326 0 517 -200t191 -558q0 -189 -53 -334q-41 -112 -128 -213zM1091 353q114 133 114 380q0 255 -112 379
q-113 126 -293 126q-182 0 -294 -126q-112 -125 -112 -379q0 -258 112 -385t285 -127q64 0 121 21q-92 60 -183 92l83 169q146 -49 279 -150z" />
    <glyph glyph-name="R" unicode="R" horiz-adv-x="1479" 
d="M150 0v1466h623q236 0 341 -40q106 -39 171 -140q64 -100 64 -231q0 -168 -98.5 -274.5t-288.5 -133.5q97 -56 158 -123q62 -67 169 -238l179 -286h-354l-214 319q-115 173 -156 215q-41 44 -89 61t-149 17h-60v-612h-296zM446 846h219q213 0 266 18t83 62t30 110
q0 74 -39.5 119.5t-111.5 57.5q-40 5 -216 5h-231v-372z" />
    <glyph glyph-name="S" unicode="S" horiz-adv-x="1366" 
d="M74 477l288 28q26 -144 105 -212.5t215 -68.5q143 0 215 60q73 61 73 142q0 53 -31.5 89.5t-105.5 62.5q-47 16 -237 64q-236 58 -334 145q-135 121 -135 295q0 112 63 209q65 98 183 149q120 51 289 51q276 0 415 -121q140 -122 147 -323l-296 -13q-19 113 -81.5 162.5
t-187.5 49.5q-128 0 -202 -53q-47 -35 -47 -91q0 -51 44 -89q56 -47 272 -98q217 -51 319 -106q221 -114 221 -382q0 -127 -70 -236q-71 -110 -198 -164q-129 -53 -319 -53q-545 0 -605 503z" />
    <glyph glyph-name="T" unicode="T" horiz-adv-x="1251" 
d="M479 0v1218h-435v248h1165v-248h-434v-1218h-296z" />
    <glyph glyph-name="U" unicode="U" horiz-adv-x="1479" 
d="M147 1466h296v-794q0 -187 11 -245q19 -93 92 -146t194 -53q125 0 190 51q63 52 77 127q13 72 13 249v811h296v-770q0 -264 -24 -373q-24 -108 -89 -184q-65 -75 -172 -120q-109 -44 -282 -44q-209 0 -319 48q-108 49 -171 126q-64 79 -83 163q-29 128 -29 372v782z" />
    <glyph glyph-name="V" unicode="V" horiz-adv-x="1366" 
d="M523 0l-524 1466h321l371 -1085l359 1085h314l-525 -1466h-316z" />
    <glyph glyph-name="W" unicode="W" horiz-adv-x="1933" 
d="M357 0l-350 1466h303l221 -1007l268 1007h352l257 -1024l225 1024h298l-356 -1466h-314l-292 1096l-291 -1096h-321z" />
    <glyph glyph-name="X" unicode="X" horiz-adv-x="1366" 
d="M0 0l501 765l-454 701h346l294 -471l288 471h343l-456 -712l501 -754h-357l-325 507l-326 -507h-355z" />
    <glyph glyph-name="Y" unicode="Y" horiz-adv-x="1366" 
d="M534 0v617l-537 849h347l345 -580l338 580h341l-539 -851v-615h-295z" />
    <glyph glyph-name="Z" unicode="Z" horiz-adv-x="1251" 
d="M22 0v267l770 951h-683v248h1073v-230l-803 -989h834v-247h-1191z" />
    <glyph glyph-name="bracketleft" unicode="[" horiz-adv-x="682" 
d="M146 -413v1879h498v-221h-231v-1437h231v-221h-498z" />
    <glyph glyph-name="backslash" unicode="\" horiz-adv-x="569" 
d="M-3 1491h207l367 -1516h-211z" />
    <glyph glyph-name="bracketright" unicode="]" horiz-adv-x="682" 
d="M536 1466v-1879h-498v221h231v1439h-231v219h498z" />
    <glyph glyph-name="asciicircum" unicode="^" horiz-adv-x="1196" 
d="M115 692l376 799h223l366 -799h-284l-198 489l-197 -489h-286z" />
    <glyph glyph-name="underscore" unicode="_" 
d="M-19 -405v182h1168v-182h-1168z" />
    <glyph glyph-name="grave" unicode="`" horiz-adv-x="682" 
d="M495 1192h-177l-276 299h315z" />
    <glyph glyph-name="a" unicode="a" 
d="M357 738l-255 46q44 155 148 228q106 74 312 74q188 0 280 -45q91 -43 129 -113q38 -68 38 -251l-3 -328q0 -142 13 -207t51 -142h-278q-12 33 -27 83q-9 30 -10 33q-145 -140 -329 -140q-164 0 -259 89q-94 88 -94 225q0 90 43 160.5t120 107.5q78 37 224 66
q196 38 273 69v28q0 81 -40 115q-41 35 -151 35q-76 0 -117.5 -29.5t-67.5 -103.5zM733 510q-50 -17 -171 -43q-118 -26 -153 -49q-55 -39 -55 -99q0 -58 44 -102q43 -43 112 -43q75 0 145 50q50 37 67 93q11 38 11 137v56z" />
    <glyph glyph-name="b" unicode="b" horiz-adv-x="1251" 
d="M135 0v1466h281v-528q130 148 308 148q194 0 321 -141q127 -139 127 -403q0 -273 -130 -419q-129 -147 -314 -147q-93 0 -181.5 46.5t-150.5 133.5v-156h-261zM414 554q0 -165 52 -244q73 -112 194 -112q94 0 158 79q66 79 66 251q0 182 -66 262q-66 81 -169 81
q-101 0 -168 -79q-67 -77 -67 -238z" />
    <glyph glyph-name="c" unicode="c" 
d="M1073 748l-277 -50q-29 167 -192 167q-105 0 -168 -73q-62 -73 -62 -242q0 -189 63 -267q65 -78 171 -78q83 0 133 47t70 155l276 -47q-87 -384 -492 -384q-233 0 -372 147q-138 147 -138 407q0 264 139 409q140 147 376 147q193 0 307.5 -83t165.5 -255z" />
    <glyph glyph-name="d" unicode="d" horiz-adv-x="1251" 
d="M1121 0h-261v156q-63 -88 -151 -134t-181 -46q-184 0 -314 147q-130 148 -130 412q0 271 127 410q127 141 321 141q178 0 308 -148v528h281v-1466zM371 554q0 -169 47 -246q68 -110 190 -110q98 0 165 82q68 83 68 247q0 183 -66 263q-66 81 -169 81q-100 0 -168 -80
q-67 -79 -67 -237z" />
    <glyph glyph-name="e" unicode="e" 
d="M762 338l280 -47q-54 -154 -171 -234.5t-291 -80.5q-277 0 -410 181q-105 145 -105 366q0 264 138 413q138 150 349 150q238 0 374 -157q137 -157 131 -479h-704q3 -124 68 -195q65 -69 162 -69q135 0 179 152zM778 622q-3 122 -63 185q-60 64 -146 64q-92 0 -152 -67
q-60 -68 -59 -182h420z" />
    <glyph glyph-name="f" unicode="f" horiz-adv-x="682" 
d="M24 1062h156v80q0 135 28 200q29 67 105 107q77 42 194 42q119 0 235 -36l-38 -196q-65 16 -129 16q-62 0 -88 -29.5t-26 -108.5v-75h210v-221h-210v-841h-281v841h-156v221z" />
    <glyph glyph-name="g" unicode="g" horiz-adv-x="1251" 
d="M121 -70l321 -39q7 -55 37 -77q41 -30 126 -30q109 0 165 33q37 22 56 71q13 33 13 129v155q-126 -172 -318 -172q-215 0 -339 181q-98 143 -98 356q0 266 128 408q129 141 320 141q197 0 325 -173v149h263v-953q0 -189 -31 -281q-32 -94 -87 -146q-119 -113 -386 -113
q-270 0 -383 93q-113 92 -113 234q0 21 1 34zM372 553q0 -168 65 -248q66 -78 162 -78q103 0 174 80q71 82 71 239q0 165 -68 245t-172 80q-101 0 -167 -79q-65 -79 -65 -239z" />
    <glyph glyph-name="h" unicode="h" horiz-adv-x="1251" 
d="M427 1466v-539q137 159 325 159q97 0 175 -36q77 -36 117 -92q40 -55 54 -124q15 -68 15 -211v-623h-281v561q0 168 -16 212q-17 46 -57 71q-41 27 -101 27q-72 0 -126 -35t-80 -102q-25 -66 -25 -202v-532h-281v1466h281z" />
    <glyph glyph-name="i" unicode="i" horiz-adv-x="569" 
d="M147 1206v260h281v-260h-281zM147 0v1062h281v-1062h-281z" />
    <glyph glyph-name="j" unicode="j" horiz-adv-x="569" 
d="M141 1206v260h281v-260h-281zM422 1062v-1029q0 -203 -27 -286q-26 -85 -102 -131q-76 -47 -192 -47q-83 0 -195 30l49 240q49 -9 70 -9q41 0 69.5 17.5t37.5 45.5q9 25 9 156v1013h281z" />
    <glyph glyph-name="k" unicode="k" 
d="M137 0v1466h281v-778l329 374h346l-363 -388l389 -674h-303l-267 477l-131 -137v-340h-281z" />
    <glyph glyph-name="l" unicode="l" horiz-adv-x="569" 
d="M147 0v1466h281v-1466h-281z" />
    <glyph glyph-name="m" unicode="m" horiz-adv-x="1821" 
d="M126 1062h259v-145q139 169 331 169q204 0 300 -169q139 169 324 169q238 0 319 -187q29 -69 29 -220v-679h-281v607q0 157 -29 204q-39 60 -120 60q-61 0 -112 -37t-74 -105q-23 -71 -23 -219v-510h-281v582q0 155 -15 200q-15 44 -47 67q-31 22 -85 22
q-66 0 -117.5 -35.5t-74.5 -100.5q-22 -65 -22 -219v-516h-281v1062z" />
    <glyph glyph-name="n" unicode="n" horiz-adv-x="1251" 
d="M1113 0h-281v542q0 172 -18 222t-59 79q-40 28 -97 28q-73 0 -131 -40t-80 -106q-21 -66 -21 -244v-481h-281v1062h261v-156q140 180 350 180q91 0 168.5 -33t117.5 -86q40 -52 55 -118q16 -64 16 -189v-660z" />
    <glyph glyph-name="o" unicode="o" horiz-adv-x="1251" 
d="M82 546q0 140 69 271t195 200q128 69 283 69q241 0 395 -157q154 -155 154 -395q0 -241 -156 -400q-155 -158 -391 -158q-145 0 -279 66q-132 66 -201 193q-69 128 -69 311zM370 531q0 -158 75 -242t185 -84t184 84q75 84 75 244q0 156 -75 240q-74 84 -184 84t-185 -84
t-75 -242z" />
    <glyph glyph-name="p" unicode="p" horiz-adv-x="1251" 
d="M139 1062h262v-156q52 81 138 130q88 50 193 50q185 0 314 -145t129 -404q0 -266 -130 -414q-131 -147 -315 -147q-87 0 -160 35q-70 35 -150 120v-535h-281v1466zM417 549q0 -179 71 -265q70 -85 173 -85q99 0 163 78q65 80 65 258q0 168 -67 248q-67 81 -166 81
q-103 0 -171 -80t-68 -235z" />
    <glyph glyph-name="q" unicode="q" horiz-adv-x="1251" 
d="M841 -404v534q-55 -72 -137.5 -113t-176.5 -41q-181 0 -298 136q-138 159 -138 431q0 257 129 399q130 144 322 144q105 0 182.5 -44.5t138.5 -136.5v157h259v-1466h-281zM850 544q0 163 -67 242q-66 80 -166 80q-102 0 -171 -81q-68 -82 -68 -257t66 -253
q66 -77 163 -77t170 87q73 86 73 259z" />
    <glyph glyph-name="r" unicode="r" horiz-adv-x="797" 
d="M416 0h-281v1062h261v-151q68 107 120 141q53 34 122 34q96 0 185 -53l-87 -245q-70 46 -132 46t-102 -34t-63 -116q-23 -87 -23 -356v-328z" />
    <glyph glyph-name="s" unicode="s" 
d="M48 303l282 43q37 -167 227 -167q109 0 164 40q37 28 37 75q0 31 -20 53q-23 21 -94 37q-338 74 -431 137q-126 85 -126 239q0 138 109 232t338 94q217 0 324 -71q105 -70 146 -210l-265 -49q-35 128 -200 128q-112 0 -159 -31q-32 -23 -32 -57q0 -30 28 -51
q36 -27 262 -79q225 -51 314 -125q88 -75 88 -209q0 -146 -122 -251t-361 -105q-212 0 -340.5 86t-168.5 241z" />
    <glyph glyph-name="t" unicode="t" horiz-adv-x="682" 
d="M634 1062v-224h-192v-428q0 -127 5 -152q6 -22 25 -35q20 -14 48 -14q40 0 113 27l24 -218q-97 -42 -222 -42q-74 0 -135.5 25t-91.5 66q-28 40 -39 110q-9 49 -9 198v463h-129v224h129v211l282 164v-375h192z" />
    <glyph glyph-name="u" unicode="u" horiz-adv-x="1251" 
d="M846 0v159q-57 -84 -153 -134q-94 -49 -199 -49q-106 0 -192 47t-123 132q-38 87 -38 235v672h281v-488q0 -224 15 -275q17 -50 57 -80q41 -29 104 -29q72 0 129 39q57 41 78 98q21 58 21 287v448h281v-1062h-261z" />
    <glyph glyph-name="v" unicode="v" 
d="M439 0l-428 1062h295l200 -542l58 -181q26 80 29 91q13 45 30 90l202 542h289l-422 -1062h-253z" />
    <glyph glyph-name="w" unicode="w" horiz-adv-x="1593" 
d="M345 0l-336 1062h273l199 -696l183 696h271l177 -696l203 696h277l-341 -1062h-270l-183 683l-180 -683h-273z" />
    <glyph glyph-name="x" unicode="x" 
d="M12 0l383 547l-367 515h343l188 -292l198 292h330l-360 -503l393 -559h-345l-216 329l-218 -329h-329z" />
    <glyph glyph-name="y" unicode="y" 
d="M14 1062h299l254 -754l248 754h291l-375 -1022l-67 -185q-38 -95 -71 -142q-32 -48 -77 -79q-90 -65 -250 -65q-79 0 -159 17l-25 220q64 -13 119 -13q99 0 145 58q46 57 72 146z" />
    <glyph glyph-name="z" unicode="z" horiz-adv-x="1024" 
d="M34 0v219l398 457q91 105 145 159q-38 -2 -129 -4l-375 -2v233h878v-199l-406 -468l-143 -155q109 7 145 7h435v-247h-948z" />
    <glyph glyph-name="braceleft" unicode="{" horiz-adv-x="797" 
d="M60 410v240q74 5 110 22q37 18 64 60q27 43 37 107q8 51 8 167q0 194 18 270t65 123t137 74q61 18 192 18h53v-239q-113 0 -143 -13q-30 -12 -46 -38q-15 -25 -15 -87q0 -64 -9 -239q-9 -177 -80 -262q-30 -38 -99 -83q60 -34 97 -79.5t57 -110.5q20 -67 26 -174
q7 -155 7 -212q0 -67 16 -92q17 -26 48 -39q34 -14 141 -14v-240h-53q-137 0 -207 22q-72 21 -122 71q-49 49 -66 124q-17 76 -17 231q0 185 -16 239q-23 80 -67 114q-45 36 -136 40z" />
    <glyph glyph-name="bar" unicode="|" horiz-adv-x="573" 
d="M176 -431v1922h223v-1922h-223z" />
    <glyph glyph-name="braceright" unicode="}" horiz-adv-x="797" 
d="M729 410q-74 -5 -110 -22q-37 -18 -64 -61q-27 -44 -37 -106q-8 -51 -8 -166q0 -195 -18 -271q-16 -75 -64 -123q-47 -47 -138 -74q-62 -18 -192 -18h-53v240q106 0 140 14q33 13 48 39q16 25 16 86q1 59 9 233q6 101 28 167t56 104.5t95 77.5q-74 48 -108 94
q-48 68 -64 168q-12 78 -16 308q-2 76 -14 100q-11 24 -45 38q-33 14 -145 14v239h53q135 0 207 -21q71 -21 121 -72q49 -49 66 -124q18 -74 18 -231q0 -183 15 -239q23 -81 67 -115q45 -34 137 -39v-240z" />
    <glyph glyph-name="asciitilde" unicode="~" horiz-adv-x="1196" 
d="M67 519v259q127 138 296 138q65 0 116 -13q52 -12 190 -68q137 -55 187 -55q60 0 133.5 36.5t139.5 107.5v-270q-47 -48 -129 -90t-170 -42q-50 0 -98 12q-46 12 -150 57q-153 67 -242 67q-140 0 -273 -139z" />
    <glyph glyph-name="exclamdown" unicode="&#xa1;" horiz-adv-x="682" 
d="M488 1062v-281h-282v281h282zM426 678l73 -741v-344h-304v344l73 741h158z" />
    <glyph glyph-name="cent" unicode="&#xa2;" 
d="M744 811l-182 -602q20 -4 45 -4q82 0 132.5 47.5t70.5 154.5l276 -47q-87 -384 -491 -384q-53 0 -101 7l-117 -386l-122 34l116 385q-138 60 -213 196q-74 137 -74 323q0 260 139 405q140 146 375 146q44 0 94 -6l113 376l123 -35l-112 -371q188 -72 256 -302l-277 -50
q-12 73 -51 113zM627 864q-9 1 -24 1q-106 0 -169 -73q-62 -74 -62 -243q0 -195 76 -280z" />
    <glyph glyph-name="sterling" unicode="&#xa3;" 
d="M999 285l108 -238q-58 -31 -133 -50.5t-143 -19.5q-90 0 -240 42q-148 43 -222 43q-121 0 -249 -87l-107 242q108 77 160 167.5t52 179.5q0 30 -4 57h-208v221h157q-41 120 -41 239q0 108 59 208q60 99 169 150q108 52 238 52q197 0 314 -99t143 -286l-271 -40
q-35 201 -194 201q-81 0 -133 -54q-53 -53 -53 -134q0 -39 14 -111q15 -69 36 -126h312v-221h-266q3 -23 3 -44q0 -79 -30 -146q-29 -65 -123 -176q55 28 138 28q38 0 63 -4q8 -1 82 -19q120 -31 165 -31q77 0 204 56z" />
    <glyph glyph-name="currency" unicode="&#xa4;" 
d="M177 941l-132 131l166 178l136 -136q104 57 218 57q118 0 219 -57l134 134l167 -169l-132 -133q56 -103 56 -218q0 -114 -56 -218l134 -133l-167 -171l-136 136q-103 -57 -218 -57q-112 0 -216 56l-130 -131l-170 168l130 132q-57 106 -57 218q0 116 54 213zM364 728
q0 -84 59 -143q61 -59 143 -59q84 0 143 59t59 143t-59 143t-143 59t-143 -59t-59 -143z" />
    <glyph glyph-name="yen" unicode="&#xa5;" 
d="M422 273h-371v221h371v120h-371v221h261l-311 631h308l200 -426q37 -80 54 -141q19 66 54 141l204 426h308l-315 -631h265v-221h-376v-120h376v-221h-376v-273h-281v273z" />
    <glyph glyph-name="brokenbar" unicode="&#xa6;" horiz-adv-x="573" 
d="M176 701v790h223v-790h-223zM176 -431v791h223v-791h-223z" />
    <glyph glyph-name="section" unicode="&#xa7;" 
d="M986 1154l-275 -29q-4 74 -43.5 113t-109.5 39q-62 0 -97.5 -27.5t-35.5 -65.5q0 -49 46 -94q31 -29 205 -142q178 -115 230 -160q86 -72 124 -143.5t38 -159.5q0 -186 -182 -314q121 -112 121 -254q0 -147 -111 -248q-110 -100 -319 -100q-200 0 -320 99
q-119 99 -142 264l274 33q18 -89 68 -135t128 -46q65 0 104.5 34t39.5 84q0 47 -37 84q-35 35 -267 182q-227 145 -297 242q-69 96 -69 215q0 101 46 184t139 136q-101 109 -101 224q0 135 105 228q106 94 297 94q196 0 308 -94q114 -94 133 -243zM735 293q87 78 87 147
q0 33 -23 68t-126 110l-273 198q-36 -22 -61 -59t-25 -77q0 -100 135 -192z" />
    <glyph glyph-name="dieresis" unicode="&#xa8;" horiz-adv-x="682" 
d="M5 1250v241h241v-241h-241zM435 1250v241h242v-241h-242z" />
    <glyph glyph-name="copyright" unicode="&#xa9;" horiz-adv-x="1509" 
d="M757 1496q197 0 378 -99q180 -98 284 -283q104 -184 104 -384t-102 -382q-100 -180 -283 -283q-182 -101 -381 -101q-200 0 -382 101q-181 102 -283 283q-101 182 -101 382q0 202 103 384q103 184 285 283q181 99 378 99zM757 1345q-159 0 -304 -79q-146 -80 -228 -227
q-83 -148 -83 -309q0 -160 81 -306q83 -146 228 -228q145 -81 306 -81t306 81q146 83 227 228q82 145 82 306q0 160 -83 309q-81 146 -229 227q-145 79 -303 79zM943 616l161 -54q-38 -125 -125.5 -192.5t-210.5 -67.5q-171 0 -279 112t-108 309q0 130 48.5 230.5
t137.5 150.5q92 50 203 50q124 0 206.5 -59t127.5 -184l-162 -38q-53 139 -178 139q-95 0 -151 -71t-56 -212q0 -146 57 -215t137 -69q142 0 192 171z" />
    <glyph glyph-name="ordfeminine" unicode="&#xaa;" horiz-adv-x="758" 
d="M254 1252l-189 38q24 102 95 151.5t208 49.5q147 0 222 -39q49 -25 73 -89q15 -41 15 -154v-239q0 -104 6 -140q8 -34 24 -69h-190q-12 22 -23 71q-89 -89 -216 -89q-113 0 -178 60q-64 61 -64 156q0 134 124 189q40 17 188 47q77 16 125 33q0 16 -1 21q-1 49 -18 64
q-24 21 -83 21q-52 0 -78 -17q-19 -13 -40 -65zM474 1095q-23 -14 -62 -21q-108 -22 -128 -35q-40 -25 -40 -65q0 -32 28 -56.5t69 -24.5q59 0 96 42.5t37 119.5v40z" />
    <glyph glyph-name="guillemotleft" unicode="&#xab;" 
d="M633 983l-260 -451l260 -462h-221l-316 462l316 451h221zM1025 983l-259 -451l259 -462h-221l-316 462l316 451h221z" />
    <glyph glyph-name="logicalnot" unicode="&#xac;" horiz-adv-x="1196" 
d="M853 376v441h-768v257h1025v-698h-257z" />
    <glyph glyph-name="registered" unicode="&#xae;" horiz-adv-x="1509" 
d="M757 1496q197 0 378 -99q180 -97 284 -282t104 -385t-102 -382q-100 -180 -283 -283q-182 -101 -381 -101q-200 0 -382 101q-181 102 -283 283q-101 182 -101 382q0 201 103 385q104 185 285 282q181 99 378 99zM758 1346q-158 0 -303 -79q-146 -80 -229 -227
q-83 -149 -83 -310q0 -162 81 -307q82 -145 228 -228q145 -82 306 -82t306 82q146 83 228 228t82 307t-84 310q-81 146 -229 227q-145 79 -303 79zM411 320v813h165q222 0 260 -2q81 -7 127 -32t76 -79q31 -52 31 -116q0 -89 -58 -151t-161 -77q35 -13 57 -31q24 -20 55 -62
q9 -12 60 -99l96 -164h-204l-68 132q-68 132 -114 167t-114 35h-43v-334h-165zM576 782h67q141 0 177 11q35 11 55 38q20 29 20 63t-19.5 60.5t-55.5 37.5q-36 12 -177 12h-67v-222z" />
    <glyph glyph-name="macron" unicode="&#xaf;" horiz-adv-x="682" 
d="M19 1237v185h644v-185h-644z" />
    <glyph glyph-name="degree" unicode="&#xb0;" horiz-adv-x="819" 
d="M86 1172q0 133 93 226q95 93 226 93q132 0 225 -94q94 -93 94 -225t-94 -226q-93 -93 -225 -93q-131 0 -226 93q-93 94 -93 226zM252 1172q0 -63 45 -108t108 -45t108 45t45 108t-45 108t-108 45t-108 -45t-45 -108z" />
    <glyph glyph-name="plusminus" unicode="&#xb1;" horiz-adv-x="1124" 
d="M434 356v381h-384v263h384v381h256v-381h385v-263h-385v-381h-256zM50 0v263h1025v-263h-1025z" />
    <glyph glyph-name="twosuperior" unicode="&#xb2;" horiz-adv-x="682" 
d="M632 885v-158h-607q10 84 54 152q43 67 195 186q113 88 137 118q31 37 31 77q0 38 -25.5 59.5t-75.5 21.5q-52 0 -76.5 -25t-30.5 -90l-189 16q15 117 75 171q80 71 226 71q139 0 212 -64q74 -65 74 -151q0 -104 -96 -203q-30 -30 -135 -112q-53 -41 -83 -69h314z" />
    <glyph glyph-name="threesuperior" unicode="&#xb3;" horiz-adv-x="682" 
d="M40 946l184 20q16 -108 113 -108q49 0 79 30t30 78q0 43 -29 71t-74 28q-29 0 -91 -15l23 146q72 -1 104 21t32 58q0 30 -21.5 48t-61.5 18q-84 0 -99 -98l-178 26q26 105 74 147q77 68 208 68q123 0 196 -62q73 -61 73 -142q0 -38 -21 -70q-29 -46 -76 -74
q66 -24 101 -70t35 -109q0 -95 -84 -169q-83 -73 -221 -73q-126 0 -204 62t-92 169z" />
    <glyph glyph-name="acute" unicode="&#xb4;" horiz-adv-x="682" 
d="M187 1192l138 299h315l-275 -299h-178z" />
    <glyph glyph-name="mu" unicode="&#xb5;" horiz-adv-x="1180" 
d="M111 1062h279v-481q0 -208 42 -283q52 -97 157 -97q57 0 106.5 36.5t73.5 99.5q24 65 24 241v484h284v-1062h-262v128q-30 -56 -57 -84t-73 -49q-45 -21 -83 -21q-70 0 -126 39q-39 28 -86 115v-535h-279v1469z" />
    <glyph glyph-name="paragraph" unicode="&#xb6;" 
d="M635 -403h-243v1047q-189 13 -292 122q-102 108 -102 286q0 104 40.5 191.5t110.5 139.5q72 52 164 71q55 12 219 12h597v-261h-113v-1608h-237v1608h-144v-1608z" />
    <glyph glyph-name="periodcentered" unicode="&#xb7;" horiz-adv-x="569" 
d="M147 573v281h281v-281h-281z" />
    <glyph glyph-name="cedilla" unicode="&#xb8;" horiz-adv-x="682" 
d="M38 -403v118q108 -11 189 -11q88 0 132 32q33 24 33 62q0 36 -32.5 60t-94.5 24t-131 -20l26 99q78 27 168 27q126 0 190 -55q65 -56 65 -134q0 -87 -72 -143q-97 -75 -278 -75q-131 0 -195 16z" />
    <glyph glyph-name="onesuperior" unicode="&#xb9;" horiz-adv-x="682" 
d="M495 727h-190v513q-96 -66 -214 -98v155q96 27 172 87q54 42 78 100h154v-757z" />
    <glyph glyph-name="ordmasculine" unicode="&#xba;" horiz-adv-x="748" 
d="M26 1115q0 179 94 277q95 99 253 99t252 -100q95 -100 95 -276t-95 -276q-95 -99 -252 -99q-158 0 -253 98q-94 98 -94 277zM237 1113q0 -203 133 -203q134 0 134 203t-134 203q-133 0 -133 -203z" />
    <glyph glyph-name="guillemotright" unicode="&#xbb;" 
d="M498 70l260 452l-260 461h221l316 -461l-316 -452h-221zM106 70l260 452l-260 461h221l316 -461l-316 -452h-221z" />
    <glyph glyph-name="onequarter" unicode="&#xbc;" horiz-adv-x="1708" 
d="M496 727h-190v513q-96 -66 -214 -98v155q96 27 172 87q54 42 78 100h154v-757zM499 -54h-159l869 1538h159zM1403 -42v146h-360v141l382 470h156v-466h107v-145h-107v-146h-178zM1403 249v225l-183 -225h183z" />
    <glyph glyph-name="onehalf" unicode="&#xbd;" horiz-adv-x="1708" 
d="M496 727h-190v513q-96 -66 -214 -98v155q96 27 172 87q54 42 78 100h154v-757zM499 -54h-159l869 1538h159zM1656 115v-157h-607q10 82 55 152q43 67 194 186q113 88 137 118q31 37 31 77q0 38 -25.5 59.5t-75.5 21.5q-52 0 -76.5 -25.5t-29.5 -89.5l-190 16
q15 116 76 171q80 71 225 71q139 0 212 -64q74 -65 74 -151q0 -106 -96 -203q-30 -30 -135 -112q-57 -45 -82 -70h313z" />
    <glyph glyph-name="threequarters" unicode="&#xbe;" horiz-adv-x="1708" 
d="M40 946l184 20q16 -108 113 -108q49 0 79 30t30 78q0 43 -29 71t-74 28q-29 0 -91 -15l23 146q72 -1 104 21t32 58q0 30 -21.5 48t-61.5 18q-84 0 -99 -98l-178 26q26 105 74 147q77 68 208 68q123 0 196 -62q73 -61 73 -142q0 -38 -21 -70q-29 -46 -76 -74
q66 -24 101 -70t35 -109q0 -95 -84 -169q-83 -73 -221 -73q-126 0 -204 62t-92 169zM523 -54h-159l869 1538h158zM1402 -42v146h-360v141l382 470h156v-466h108v-145h-108v-146h-178zM1402 249v225l-182 -225h182z" />
    <glyph glyph-name="questiondown" unicode="&#xbf;" horiz-adv-x="1251" 
d="M763 1062v-281h-281v281h281zM509 684h254q0 -19 0.5 -37t1 -27t0.5 -12q0 -114 -44 -197q-43 -82 -170 -185q-125 -103 -151 -144q-25 -40 -25 -93q0 -77 66 -135q67 -59 177 -59q222 0 278 247l258 -33q-17 -125 -71 -208q-73 -111 -190 -166t-264 -55q-242 0 -385 127
q-143 126 -143 292q0 128 105 246q56 61 174 159q88 71 108 116q23 47 21 164z" />
    <glyph glyph-name="Agrave" unicode="&#xc0;" horiz-adv-x="1479" 
d="M1471 0h-322l-128 333h-586l-121 -333h-314l571 1466h313zM926 580l-202 544l-198 -544h400zM891 1550h-177l-276 299h315z" />
    <glyph glyph-name="Aacute" unicode="&#xc1;" horiz-adv-x="1479" 
d="M1471 0h-322l-128 333h-586l-121 -333h-314l571 1466h313zM926 580l-202 544l-198 -544h400zM554 1550l138 299h315l-275 -299h-178z" />
    <glyph glyph-name="Acircumflex" unicode="&#xc2;" horiz-adv-x="1479" 
d="M1471 0h-322l-128 333h-586l-121 -333h-314l571 1466h313zM926 580l-202 544l-198 -544h400zM386 1550l210 295h260l207 -295h-226l-116 149l-108 -149h-227z" />
    <glyph glyph-name="Atilde" unicode="&#xc3;" horiz-adv-x="1479" 
d="M1471 0h-322l-128 333h-586l-121 -333h-314l571 1466h313zM926 580l-202 544l-198 -544h400zM495 1547h-128q-1 15 -1 36q0 103 50 160.5t132 57.5q33 0 65 -8q31 -8 109 -43q81 -35 125 -35q70 0 81 87h130q-1 -134 -51 -193q-49 -58 -127 -58q-36 0 -67 7
q-21 6 -115 41q-93 35 -134 35q-68 0 -69 -87z" />
    <glyph glyph-name="Adieresis" unicode="&#xc4;" horiz-adv-x="1479" 
d="M1471 0h-322l-128 333h-586l-121 -333h-314l571 1466h313zM926 580l-202 544l-198 -544h400zM383 1550v241h241v-241h-241zM813 1550v241h242v-241h-242z" />
    <glyph glyph-name="Aring" unicode="&#xc5;" horiz-adv-x="1479" 
d="M1471 0h-322l-128 333h-586l-121 -333h-314l571 1466h313zM926 580l-202 544l-198 -544h400zM921 1562q0 -81 -58 -139q-57 -57 -138 -57t-139 57q-57 59 -57 139q0 81 57 138q58 58 139 58t138 -57q58 -57 58 -139zM814 1562q0 37 -26 63t-63 26t-63 -26t-26 -63t26 -63
t63 -26t63 26t26 63z" />
    <glyph glyph-name="AE" unicode="&#xc6;" horiz-adv-x="2048" 
d="M-86 0l684 1466h1324v-248h-726v-326h669v-248h-669v-397h753v-247h-1049v345h-508l-150 -345h-328zM501 601h402v643h-115z" />
    <glyph glyph-name="Ccedilla" unicode="&#xc7;" horiz-adv-x="1479" 
d="M1087 539l287 -91q-130 -473 -609 -473q-293 0 -480 199q-188 200 -188 546q0 366 189 568q189 203 497 203q269 0 437 -159q100 -94 150 -270l-293 -70q-25 113 -109 180q-82 66 -200 66q-163 0 -265 -117q-101 -118 -101 -379q0 -278 100 -396t260 -118q121 0 205 77
t120 234zM465 -403v118q108 -11 189 -11q88 0 132 32q33 24 33 62q0 36 -32.5 60t-94.5 24t-131 -20l26 99q78 27 168 27q126 0 190 -55q65 -56 65 -134q0 -87 -72 -143q-97 -75 -278 -75q-131 0 -195 16z" />
    <glyph glyph-name="Egrave" unicode="&#xc8;" horiz-adv-x="1366" 
d="M149 0v1466h1087v-248h-791v-325h736v-247h-736v-399h819v-247h-1115zM862 1550h-177l-276 299h315z" />
    <glyph glyph-name="Eacute" unicode="&#xc9;" horiz-adv-x="1366" 
d="M149 0v1466h1087v-248h-791v-325h736v-247h-736v-399h819v-247h-1115zM525 1550l138 299h315l-275 -299h-178z" />
    <glyph glyph-name="Ecircumflex" unicode="&#xca;" horiz-adv-x="1366" 
d="M149 0v1466h1087v-248h-791v-325h736v-247h-736v-399h819v-247h-1115zM337 1550l210 295h260l207 -295h-226l-116 149l-108 -149h-227z" />
    <glyph glyph-name="Edieresis" unicode="&#xcb;" horiz-adv-x="1366" 
d="M149 0v1466h1087v-248h-791v-325h736v-247h-736v-399h819v-247h-1115zM354 1550v241h241v-241h-241zM784 1550v241h242v-241h-242z" />
    <glyph glyph-name="Igrave" unicode="&#xcc;" horiz-adv-x="569" 
d="M140 0v1466h296v-1466h-296zM443 1550h-177l-276 299h315z" />
    <glyph glyph-name="Iacute" unicode="&#xcd;" horiz-adv-x="569" 
d="M140 0v1466h296v-1466h-296zM106 1550l138 299h315l-275 -299h-178z" />
    <glyph glyph-name="Icircumflex" unicode="&#xce;" horiz-adv-x="569" 
d="M140 0v1466h296v-1466h-296zM-42 1550l210 295h260l207 -295h-226l-116 149l-108 -149h-227z" />
    <glyph glyph-name="Idieresis" unicode="&#xcf;" horiz-adv-x="569" 
d="M140 0v1466h296v-1466h-296zM-45 1550v241h241v-241h-241zM385 1550v241h242v-241h-242z" />
    <glyph glyph-name="Eth" unicode="&#xd0;" horiz-adv-x="1479" 
d="M149 1466h540q184 0 282 -29q128 -39 221 -136.5t139 -239.5q47 -141 47 -346q0 -181 -52 -327t-151 -242q-76 -73 -207 -115q-96 -31 -263 -31h-556v640h-152v186h152v640zM444 1218v-392h314v-186h-314v-393h222q148 0 212 24q86 30 131 110q63 113 63 345
q0 166 -27 254q-25 89 -78 145q-50 54 -134 77q-63 16 -255 16h-134z" />
    <glyph glyph-name="Ntilde" unicode="&#xd1;" horiz-adv-x="1479" 
d="M152 0v1466h288l600 -979v979h275v-1466h-297l-591 956v-956h-275zM520 1547h-128q-1 15 -1 36q0 103 50 160.5t132 57.5q33 0 65 -8q31 -8 109 -43q81 -35 125 -35q70 0 81 87h130q-1 -134 -51 -193q-49 -58 -127 -58q-36 0 -67 7q-21 6 -115 41q-93 35 -134 35
q-68 0 -69 -87z" />
    <glyph glyph-name="Ograve" unicode="&#xd2;" horiz-adv-x="1593" 
d="M89 724q0 226 67 376q49 111 136 201q87 89 190 132q135 58 316 58q324 0 518 -201q195 -201 195 -559q0 -356 -193 -556q-194 -200 -516 -200q-327 0 -520 199t-193 550zM394 734q0 -250 115 -378q116 -128 292 -128q178 0 290 127q114 128 114 383q0 252 -111 376
q-109 124 -293 124q-183 0 -295 -126q-112 -124 -112 -378zM955 1550h-177l-276 299h315z" />
    <glyph glyph-name="Oacute" unicode="&#xd3;" horiz-adv-x="1593" 
d="M89 724q0 226 67 376q49 111 136 201q87 89 190 132q135 58 316 58q324 0 518 -201q195 -201 195 -559q0 -356 -193 -556q-194 -200 -516 -200q-327 0 -520 199t-193 550zM394 734q0 -250 115 -378q116 -128 292 -128q178 0 290 127q114 128 114 383q0 252 -111 376
q-109 124 -293 124q-183 0 -295 -126q-112 -124 -112 -378zM618 1550l138 299h315l-275 -299h-178z" />
    <glyph glyph-name="Ocircumflex" unicode="&#xd4;" horiz-adv-x="1593" 
d="M89 724q0 226 67 376q49 111 136 201q87 89 190 132q135 58 316 58q324 0 518 -201q195 -201 195 -559q0 -356 -193 -556q-194 -200 -516 -200q-327 0 -520 199t-193 550zM394 734q0 -250 115 -378q116 -128 292 -128q178 0 290 127q114 128 114 383q0 252 -111 376
q-109 124 -293 124q-183 0 -295 -126q-112 -124 -112 -378zM450 1550l210 295h260l207 -295h-226l-116 149l-108 -149h-227z" />
    <glyph glyph-name="Otilde" unicode="&#xd5;" horiz-adv-x="1593" 
d="M89 724q0 226 67 376q49 111 136 201q87 89 190 132q135 58 316 58q324 0 518 -201q195 -201 195 -559q0 -356 -193 -556q-194 -200 -516 -200q-327 0 -520 199t-193 550zM394 734q0 -250 115 -378q116 -128 292 -128q178 0 290 127q114 128 114 383q0 252 -111 376
q-109 124 -293 124q-183 0 -295 -126q-112 -124 -112 -378zM559 1547h-128q-1 15 -1 36q0 103 50 160.5t132 57.5q33 0 65 -8q31 -8 109 -43q81 -35 125 -35q70 0 81 87h130q-1 -134 -51 -193q-49 -58 -127 -58q-36 0 -67 7q-21 6 -115 41q-93 35 -134 35q-68 0 -69 -87z
" />
    <glyph glyph-name="Odieresis" unicode="&#xd6;" horiz-adv-x="1593" 
d="M89 724q0 226 67 376q49 111 136 201q87 89 190 132q135 58 316 58q324 0 518 -201q195 -201 195 -559q0 -356 -193 -556q-194 -200 -516 -200q-327 0 -520 199t-193 550zM394 734q0 -250 115 -378q116 -128 292 -128q178 0 290 127q114 128 114 383q0 252 -111 376
q-109 124 -293 124q-183 0 -295 -126q-112 -124 -112 -378zM447 1550v241h241v-241h-241zM877 1550v241h242v-241h-242z" />
    <glyph glyph-name="multiply" unicode="&#xd7;" horiz-adv-x="1196" 
d="M111 420l302 302l-304 303l186 186l304 -303l302 302l181 -182l-302 -302l305 -305l-186 -186l-305 305l-302 -302z" />
    <glyph glyph-name="Oslash" unicode="&#xd8;" horiz-adv-x="1593" 
d="M1239 1359l158 177l139 -122l-167 -188q67 -90 104 -221.5t37 -279.5q0 -350 -193 -550q-194 -200 -510 -200q-274 0 -440 125l-162 -182l-142 124l171 192q-146 196 -146 508q0 348 193 548q193 201 515 201q268 0 443 -132zM1055 1153q-101 86 -256 86
q-181 0 -294 -126q-112 -124 -112 -378q0 -161 46 -272zM1164 996l-615 -691q103 -90 248 -90q178 0 292 129q115 128 115 385q0 163 -40 267z" />
    <glyph glyph-name="Ugrave" unicode="&#xd9;" horiz-adv-x="1479" 
d="M147 1466h296v-794q0 -187 11 -245q19 -93 92 -146t194 -53q125 0 190 51q63 52 77 127q13 72 13 249v811h296v-770q0 -264 -24 -373q-24 -108 -89 -184q-65 -75 -172 -120q-109 -44 -282 -44q-209 0 -319 48q-108 49 -171 126q-64 79 -83 163q-29 128 -29 372v782z
M887 1550h-177l-276 299h315z" />
    <glyph glyph-name="Uacute" unicode="&#xda;" horiz-adv-x="1479" 
d="M147 1466h296v-794q0 -187 11 -245q19 -93 92 -146t194 -53q125 0 190 51q63 52 77 127q13 72 13 249v811h296v-770q0 -264 -24 -373q-24 -108 -89 -184q-65 -75 -172 -120q-109 -44 -282 -44q-209 0 -319 48q-108 49 -171 126q-64 79 -83 163q-29 128 -29 372v782z
M550 1550l138 299h315l-275 -299h-178z" />
    <glyph glyph-name="Ucircumflex" unicode="&#xdb;" horiz-adv-x="1479" 
d="M147 1466h296v-794q0 -187 11 -245q19 -93 92 -146t194 -53q125 0 190 51q63 52 77 127q13 72 13 249v811h296v-770q0 -264 -24 -373q-24 -108 -89 -184q-65 -75 -172 -120q-109 -44 -282 -44q-209 0 -319 48q-108 49 -171 126q-64 79 -83 163q-29 128 -29 372v782z
M402 1550l210 295h260l207 -295h-226l-116 149l-108 -149h-227z" />
    <glyph glyph-name="Udieresis" unicode="&#xdc;" horiz-adv-x="1479" 
d="M147 1466h296v-794q0 -187 11 -245q19 -93 92 -146t194 -53q125 0 190 51q63 52 77 127q13 72 13 249v811h296v-770q0 -264 -24 -373q-24 -108 -89 -184q-65 -75 -172 -120q-109 -44 -282 -44q-209 0 -319 48q-108 49 -171 126q-64 79 -83 163q-29 128 -29 372v782z
M399 1550v241h241v-241h-241zM829 1550v241h242v-241h-242z" />
    <glyph glyph-name="Yacute" unicode="&#xdd;" horiz-adv-x="1366" 
d="M534 0v617l-537 849h347l345 -580l338 580h341l-539 -851v-615h-295zM495 1550l138 299h315l-275 -299h-178z" />
    <glyph glyph-name="Thorn" unicode="&#xde;" horiz-adv-x="1366" 
d="M149 0v1466h296v-276h179q272 0 353 -22q126 -35 210 -145q85 -109 85 -285q1 -96 -27.5 -176.5t-78 -132.5t-105.5 -85t-116 -46q-104 -22 -307 -22h-193v-276h-296zM445 942v-417h162q164 0 211 11q66 16 107.5 68t41.5 133q0 67 -33.5 117.5t-85.5 69.5
q-49 18 -260 18h-143z" />
    <glyph glyph-name="germandbls" unicode="&#xdf;" horiz-adv-x="1251" 
d="M139 0v952q0 199 35 304q36 105 138 169q102 66 265 66q205 0 305 -87q101 -87 101 -216q0 -87 -55 -187q-56 -102 -62 -121q-8 -24 -8 -38q0 -34 25 -69q18 -24 120 -128q105 -107 140 -178q36 -73 36 -151q0 -145 -101 -243q-100 -97 -254 -97q-106 0 -193 54
q-88 56 -131 135l196 115q43 -79 104 -79q41 0 69.5 29.5t28.5 73.5q0 41 -30 83q-16 24 -138 139q-169 162 -169 255q0 58 65 194q51 103 60 132t9 58q0 45 -33.5 75.5t-87.5 30.5q-50 0 -86.5 -25.5t-49.5 -67.5q-18 -56 -18 -226v-952h-281z" />
    <glyph glyph-name="agrave" unicode="&#xe0;" 
d="M357 738l-255 46q44 155 148 228q106 74 312 74q188 0 280 -45q91 -43 129 -113q38 -68 38 -251l-3 -328q0 -142 13 -207t51 -142h-278q-12 33 -27 83q-9 30 -10 33q-145 -140 -329 -140q-164 0 -259 89q-94 88 -94 225q0 90 43 160.5t120 107.5q78 37 224 66
q196 38 273 69v28q0 81 -40 115q-41 35 -151 35q-76 0 -117.5 -29.5t-67.5 -103.5zM733 510q-50 -17 -171 -43q-118 -26 -153 -49q-55 -39 -55 -99q0 -58 44 -102q43 -43 112 -43q75 0 145 50q50 37 67 93q11 38 11 137v56zM713 1192h-177l-276 299h315z" />
    <glyph glyph-name="aacute" unicode="&#xe1;" 
d="M357 738l-255 46q44 155 148 228q106 74 312 74q188 0 280 -45q91 -43 129 -113q38 -68 38 -251l-3 -328q0 -142 13 -207t51 -142h-278q-12 33 -27 83q-9 30 -10 33q-145 -140 -329 -140q-164 0 -259 89q-94 88 -94 225q0 90 43 160.5t120 107.5q78 37 224 66
q196 38 273 69v28q0 81 -40 115q-41 35 -151 35q-76 0 -117.5 -29.5t-67.5 -103.5zM733 510q-50 -17 -171 -43q-118 -26 -153 -49q-55 -39 -55 -99q0 -58 44 -102q43 -43 112 -43q75 0 145 50q50 37 67 93q11 38 11 137v56zM429 1192l138 299h315l-275 -299h-178z" />
    <glyph glyph-name="acircumflex" unicode="&#xe2;" 
d="M357 738l-255 46q44 155 148 228q106 74 312 74q188 0 280 -45q91 -43 129 -113q38 -68 38 -251l-3 -328q0 -142 13 -207t51 -142h-278q-12 33 -27 83q-9 30 -10 33q-145 -140 -329 -140q-164 0 -259 89q-94 88 -94 225q0 90 43 160.5t120 107.5q78 37 224 66
q196 38 273 69v28q0 81 -40 115q-41 35 -151 35q-76 0 -117.5 -29.5t-67.5 -103.5zM733 510q-50 -17 -171 -43q-118 -26 -153 -49q-55 -39 -55 -99q0 -58 44 -102q43 -43 112 -43q75 0 145 50q50 37 67 93q11 38 11 137v56zM233 1196l210 295h260l207 -295h-226l-116 149
l-108 -149h-227z" />
    <glyph glyph-name="atilde" unicode="&#xe3;" 
d="M357 738l-255 46q44 155 148 228q106 74 312 74q188 0 280 -45q91 -43 129 -113q38 -68 38 -251l-3 -328q0 -142 13 -207t51 -142h-278q-12 33 -27 83q-9 30 -10 33q-145 -140 -329 -140q-164 0 -259 89q-94 88 -94 225q0 90 43 160.5t120 107.5q78 37 224 66
q196 38 273 69v28q0 81 -40 115q-41 35 -151 35q-76 0 -117.5 -29.5t-67.5 -103.5zM733 510q-50 -17 -171 -43q-118 -26 -153 -49q-55 -39 -55 -99q0 -58 44 -102q43 -43 112 -43q75 0 145 50q50 37 67 93q11 38 11 137v56zM355 1205h-128q-1 15 -1 36q0 103 50 160.5
t132 57.5q33 0 65 -8q31 -8 109 -43q81 -35 125 -35q70 0 81 87h130q-1 -134 -51 -193q-49 -58 -127 -58q-36 0 -67 7q-21 6 -115 41q-93 35 -134 35q-68 0 -69 -87z" />
    <glyph glyph-name="adieresis" unicode="&#xe4;" 
d="M357 738l-255 46q44 155 148 228q106 74 312 74q188 0 280 -45q91 -43 129 -113q38 -68 38 -251l-3 -328q0 -142 13 -207t51 -142h-278q-12 33 -27 83q-9 30 -10 33q-145 -140 -329 -140q-164 0 -259 89q-94 88 -94 225q0 90 43 160.5t120 107.5q78 37 224 66
q196 38 273 69v28q0 81 -40 115q-41 35 -151 35q-76 0 -117.5 -29.5t-67.5 -103.5zM733 510q-50 -17 -171 -43q-118 -26 -153 -49q-55 -39 -55 -99q0 -58 44 -102q43 -43 112 -43q75 0 145 50q50 37 67 93q11 38 11 137v56zM236 1250v241h241v-241h-241zM666 1250v241h242
v-241h-242z" />
    <glyph glyph-name="aring" unicode="&#xe5;" 
d="M357 738l-255 46q44 155 148 228q106 74 312 74q188 0 280 -45q91 -43 129 -113q38 -68 38 -251l-3 -328q0 -142 13 -207t51 -142h-278q-12 33 -27 83q-9 30 -10 33q-145 -140 -329 -140q-164 0 -259 89q-94 88 -94 225q0 90 43 160.5t120 107.5q78 37 224 66
q196 38 273 69v28q0 81 -40 115q-41 35 -151 35q-76 0 -117.5 -29.5t-67.5 -103.5zM733 510q-50 -17 -171 -43q-118 -26 -153 -49q-55 -39 -55 -99q0 -58 44 -102q43 -43 112 -43q75 0 145 50q50 37 67 93q11 38 11 137v56zM767 1342q0 -81 -58 -139q-57 -57 -138 -57
t-139 57q-57 59 -57 139q0 81 57 138q58 58 139 58t138 -57q58 -57 58 -139zM660 1342q0 37 -26 63t-63 26t-63 -26t-26 -63t26 -63t63 -26t63 26t26 63z" />
    <glyph glyph-name="ae" unicode="&#xe6;" horiz-adv-x="1821" 
d="M1436 339l275 -49q-114 -314 -469 -314q-224 0 -379 146q-68 -59 -184 -104q-113 -42 -231 -42q-171 0 -265 88q-95 89 -95 224q0 77 32 141t82 101q49 37 133 62q41 14 238 54q93 20 169 44v28q0 78 -42.5 115.5t-132.5 37.5q-80 0 -127 -32.5t-67 -100.5l-255 49
q49 153 157 226q107 73 328 73q209 0 325 -98q122 98 289 98q317 0 444 -267q65 -131 63 -371h-706q17 -132 74 -195t147 -63q145 0 197 149zM1447 624q-6 88 -24 127q-25 57 -75.5 88.5t-118.5 31.5q-121 0 -174 -110q-35 -74 -32 -137h424zM740 508q-241 -64 -251 -68
q-65 -21 -92.5 -51.5t-27.5 -74.5q0 -59 43 -99q44 -41 114 -41q74 0 139 47q47 34 61 87q14 54 14 200z" />
    <glyph glyph-name="ccedilla" unicode="&#xe7;" 
d="M1073 748l-277 -50q-29 167 -192 167q-105 0 -168 -73q-62 -73 -62 -242q0 -189 63 -267q65 -78 171 -78q83 0 133 47t70 155l276 -47q-87 -384 -492 -384q-233 0 -372 147q-138 147 -138 407q0 264 139 409q140 147 376 147q193 0 307.5 -83t165.5 -255zM316 -403v118
q108 -11 189 -11q88 0 132 32q33 24 33 62q0 36 -32.5 60t-94.5 24t-131 -20l26 99q78 27 168 27q126 0 190 -55q65 -56 65 -134q0 -87 -72 -143q-97 -75 -278 -75q-131 0 -195 16z" />
    <glyph glyph-name="egrave" unicode="&#xe8;" 
d="M762 338l280 -47q-54 -154 -171 -234.5t-291 -80.5q-277 0 -410 181q-105 145 -105 366q0 264 138 413q138 150 349 150q238 0 374 -157q137 -157 131 -479h-704q3 -124 68 -195q65 -69 162 -69q135 0 179 152zM778 622q-3 122 -63 185q-60 64 -146 64q-92 0 -152 -67
q-60 -68 -59 -182h420zM703 1192h-177l-276 299h315z" />
    <glyph glyph-name="eacute" unicode="&#xe9;" 
d="M762 338l280 -47q-54 -154 -171 -234.5t-291 -80.5q-277 0 -410 181q-105 145 -105 366q0 264 138 413q138 150 349 150q238 0 374 -157q137 -157 131 -479h-704q3 -124 68 -195q65 -69 162 -69q135 0 179 152zM778 622q-3 122 -63 185q-60 64 -146 64q-92 0 -152 -67
q-60 -68 -59 -182h420zM419 1192l138 299h315l-275 -299h-178z" />
    <glyph glyph-name="ecircumflex" unicode="&#xea;" 
d="M762 338l280 -47q-54 -154 -171 -234.5t-291 -80.5q-277 0 -410 181q-105 145 -105 366q0 264 138 413q138 150 349 150q238 0 374 -157q137 -157 131 -479h-704q3 -124 68 -195q65 -69 162 -69q135 0 179 152zM778 622q-3 122 -63 185q-60 64 -146 64q-92 0 -152 -67
q-60 -68 -59 -182h420zM223 1196l210 295h260l207 -295h-226l-116 149l-108 -149h-227z" />
    <glyph glyph-name="edieresis" unicode="&#xeb;" 
d="M762 338l280 -47q-54 -154 -171 -234.5t-291 -80.5q-277 0 -410 181q-105 145 -105 366q0 264 138 413q138 150 349 150q238 0 374 -157q137 -157 131 -479h-704q3 -124 68 -195q65 -69 162 -69q135 0 179 152zM778 622q-3 122 -63 185q-60 64 -146 64q-92 0 -152 -67
q-60 -68 -59 -182h420zM225 1250v241h241v-241h-241zM655 1250v241h242v-241h-242z" />
    <glyph glyph-name="igrave" unicode="&#xec;" horiz-adv-x="569" 
d="M147 0v1062h281v-1062h-281zM430 1192h-177l-276 299h315z" />
    <glyph glyph-name="iacute" unicode="&#xed;" horiz-adv-x="569" 
d="M147 0v1062h281v-1062h-281zM146 1192l138 299h315l-275 -299h-178z" />
    <glyph glyph-name="icircumflex" unicode="&#xee;" horiz-adv-x="569" 
d="M147 0v1062h281v-1062h-281zM-51 1196l210 295h260l207 -295h-226l-116 149l-108 -149h-227z" />
    <glyph glyph-name="idieresis" unicode="&#xef;" horiz-adv-x="569" 
d="M147 0v1062h281v-1062h-281zM-48 1250v241h241v-241h-241zM382 1250v241h242v-241h-242z" />
    <glyph glyph-name="eth" unicode="&#xf0;" horiz-adv-x="1251" 
d="M332 1466h293q47 -36 109 -89l181 89l45 -98l-144 -67q193 -195 275 -388q84 -194 84 -367q0 -258 -154 -415q-155 -156 -398 -156q-235 0 -388 155q-152 157 -152 403q0 243 162 399q134 130 304 130q55 0 109 -16q36 -11 113 -53q-34 62 -65 109q-26 39 -81 108
l-250 -119l-43 96l218 103q-106 97 -218 176zM376 530q0 -159 72 -243q74 -83 178 -83q107 0 182 84t75 232q0 149 -77 235t-182 86q-103 0 -176 -82q-72 -81 -72 -229z" />
    <glyph glyph-name="ntilde" unicode="&#xf1;" horiz-adv-x="1251" 
d="M1113 0h-281v542q0 172 -18 222t-59 79q-40 28 -97 28q-73 0 -131 -40t-80 -106q-21 -66 -21 -244v-481h-281v1062h261v-156q140 180 350 180q91 0 168.5 -33t117.5 -86q40 -52 55 -118q16 -64 16 -189v-660zM412 1205h-128q-1 15 -1 36q0 103 50 160.5t132 57.5
q33 0 65 -8q31 -8 109 -43q81 -35 125 -35q70 0 81 87h130q-1 -134 -51 -193q-49 -58 -127 -58q-36 0 -67 7q-21 6 -115 41q-93 35 -134 35q-68 0 -69 -87z" />
    <glyph glyph-name="ograve" unicode="&#xf2;" horiz-adv-x="1251" 
d="M82 546q0 140 69 271t195 200q128 69 283 69q241 0 395 -157q154 -155 154 -395q0 -241 -156 -400q-155 -158 -391 -158q-145 0 -279 66q-132 66 -201 193q-69 128 -69 311zM370 531q0 -158 75 -242t185 -84t184 84q75 84 75 244q0 156 -75 240q-74 84 -184 84t-185 -84
t-75 -242zM771 1192h-177l-276 299h315z" />
    <glyph glyph-name="oacute" unicode="&#xf3;" horiz-adv-x="1251" 
d="M82 546q0 140 69 271t195 200q128 69 283 69q241 0 395 -157q154 -155 154 -395q0 -241 -156 -400q-155 -158 -391 -158q-145 0 -279 66q-132 66 -201 193q-69 128 -69 311zM370 531q0 -158 75 -242t185 -84t184 84q75 84 75 244q0 156 -75 240q-74 84 -184 84t-185 -84
t-75 -242zM488 1192l138 299h315l-275 -299h-178z" />
    <glyph glyph-name="ocircumflex" unicode="&#xf4;" horiz-adv-x="1251" 
d="M82 546q0 140 69 271t195 200q128 69 283 69q241 0 395 -157q154 -155 154 -395q0 -241 -156 -400q-155 -158 -391 -158q-145 0 -279 66q-132 66 -201 193q-69 128 -69 311zM370 531q0 -158 75 -242t185 -84t184 84q75 84 75 244q0 156 -75 240q-74 84 -184 84t-185 -84
t-75 -242zM291 1196l210 295h260l207 -295h-226l-116 149l-108 -149h-227z" />
    <glyph glyph-name="otilde" unicode="&#xf5;" horiz-adv-x="1251" 
d="M82 546q0 140 69 271t195 200q128 69 283 69q241 0 395 -157q154 -155 154 -395q0 -241 -156 -400q-155 -158 -391 -158q-145 0 -279 66q-132 66 -201 193q-69 128 -69 311zM370 531q0 -158 75 -242t185 -84t184 84q75 84 75 244q0 156 -75 240q-74 84 -184 84t-185 -84
t-75 -242zM413 1205h-128q-1 15 -1 36q0 103 50 160.5t132 57.5q33 0 65 -8q31 -8 109 -43q81 -35 125 -35q70 0 81 87h130q-1 -134 -51 -193q-49 -58 -127 -58q-36 0 -67 7q-21 6 -115 41q-93 35 -134 35q-68 0 -69 -87z" />
    <glyph glyph-name="odieresis" unicode="&#xf6;" horiz-adv-x="1251" 
d="M82 546q0 140 69 271t195 200q128 69 283 69q241 0 395 -157q154 -155 154 -395q0 -241 -156 -400q-155 -158 -391 -158q-145 0 -279 66q-132 66 -201 193q-69 128 -69 311zM370 531q0 -158 75 -242t185 -84t184 84q75 84 75 244q0 156 -75 240q-74 84 -184 84t-185 -84
t-75 -242zM283 1250v241h241v-241h-241zM713 1250v241h242v-241h-242z" />
    <glyph glyph-name="divide" unicode="&#xf7;" horiz-adv-x="1124" 
d="M421 981v281h281v-281h-281zM49 592v263h1025v-263h-1025zM421 185v281h281v-281h-281z" />
    <glyph glyph-name="oslash" unicode="&#xf8;" horiz-adv-x="1251" 
d="M946 999l104 120l112 -92l-108 -124q61 -72 95 -169.5t34 -203.5q0 -239 -157 -396q-158 -158 -394 -158q-172 0 -307 84l-115 -133l-110 95l116 134q-60 73 -94.5 174.5t-34.5 206.5q0 239 153 394q155 155 394 155q178 0 312 -87zM788 817q-67 54 -152 54
q-112 0 -192 -87q-78 -87 -78 -244q0 -100 28 -178zM874 695l-392 -453q66 -48 151 -48q115 0 193 86q78 87 78 243q0 94 -30 172z" />
    <glyph glyph-name="ugrave" unicode="&#xf9;" horiz-adv-x="1251" 
d="M846 0v159q-57 -84 -153 -134q-94 -49 -199 -49q-106 0 -192 47t-123 132q-38 87 -38 235v672h281v-488q0 -224 15 -275q17 -50 57 -80q41 -29 104 -29q72 0 129 39q57 41 78 98q21 58 21 287v448h281v-1062h-261zM766 1192h-177l-276 299h315z" />
    <glyph glyph-name="uacute" unicode="&#xfa;" horiz-adv-x="1251" 
d="M846 0v159q-57 -84 -153 -134q-94 -49 -199 -49q-106 0 -192 47t-123 132q-38 87 -38 235v672h281v-488q0 -224 15 -275q17 -50 57 -80q41 -29 104 -29q72 0 129 39q57 41 78 98q21 58 21 287v448h281v-1062h-261zM482 1192l138 299h315l-275 -299h-178z" />
    <glyph glyph-name="ucircumflex" unicode="&#xfb;" horiz-adv-x="1251" 
d="M846 0v159q-57 -84 -153 -134q-94 -49 -199 -49q-106 0 -192 47t-123 132q-38 87 -38 235v672h281v-488q0 -224 15 -275q17 -50 57 -80q41 -29 104 -29q72 0 129 39q57 41 78 98q21 58 21 287v448h281v-1062h-261zM286 1196l210 295h260l207 -295h-226l-116 149
l-108 -149h-227z" />
    <glyph glyph-name="udieresis" unicode="&#xfc;" horiz-adv-x="1251" 
d="M846 0v159q-57 -84 -153 -134q-94 -49 -199 -49q-106 0 -192 47t-123 132q-38 87 -38 235v672h281v-488q0 -224 15 -275q17 -50 57 -80q41 -29 104 -29q72 0 129 39q57 41 78 98q21 58 21 287v448h281v-1062h-261zM288 1250v241h241v-241h-241zM718 1250v241h242v-241
h-242z" />
    <glyph glyph-name="yacute" unicode="&#xfd;" 
d="M14 1062h299l254 -754l248 754h291l-375 -1022l-67 -185q-38 -95 -71 -142q-32 -48 -77 -79q-90 -65 -250 -65q-79 0 -159 17l-25 220q64 -13 119 -13q99 0 145 58q46 57 72 146zM418 1192l138 299h315l-275 -299h-178z" />
    <glyph glyph-name="thorn" unicode="&#xfe;" horiz-adv-x="1251" 
d="M139 1466h281v-528q84 84 152 115q70 33 160 33q185 0 314 -145t129 -404q0 -266 -130 -414q-131 -147 -315 -147q-87 0 -160 35q-70 35 -150 120v-535h-281v1870zM418 554q0 -165 52 -244q73 -112 194 -112q94 0 158 79q66 79 66 251q0 182 -66 262q-66 81 -169 81
q-101 0 -168 -79q-67 -77 -67 -238z" />
    <glyph glyph-name="ydieresis" unicode="&#xff;" 
d="M14 1062h299l254 -754l248 754h291l-375 -1022l-67 -185q-38 -95 -71 -142q-32 -48 -77 -79q-90 -65 -250 -65q-79 0 -159 17l-25 220q64 -13 119 -13q99 0 145 58q46 57 72 146zM230 1250v241h241v-241h-241zM660 1250v241h242v-241h-242z" />
    <glyph glyph-name="dotlessi" unicode="&#x131;" horiz-adv-x="569" 
d="M147 0v1062h281v-1062h-281z" />
    <glyph glyph-name="OE" unicode="&#x152;" horiz-adv-x="2048" 
d="M1985 249v-249h-943v173q-116 -198 -384 -198q-261 0 -407 170q-179 209 -179 590q0 379 175 581q150 175 397 175q126 0 229 -51q105 -51 169 -136v162h915v-248h-658v-326h602v-248h-602v-395h686zM701 1238q-148 0 -236 -109t-88 -372q0 -297 99 -425q75 -97 225 -97
q181 0 252 137q72 138 72 379q0 269 -88 378q-87 109 -236 109z" />
    <glyph glyph-name="oe" unicode="&#x153;" horiz-adv-x="1933" 
d="M1562 341l274 -44q-49 -151 -170 -236q-119 -85 -293 -85q-105 0 -203 37.5t-171 110.5q-157 -148 -373 -148q-233 0 -386 155q-152 157 -152 398q0 148 65 284q66 135 193 204q128 69 285 69q222 0 371 -148q138 148 354 148q98 0 184 -33t143 -87q57 -52 94 -128
q74 -143 72 -390h-699q10 -126 69.5 -192t154.5 -66q67 0 113 36t75 115zM1579 624q-8 126 -66.5 190.5t-151.5 64.5q-98 0 -157 -80q-40 -55 -51 -175h426zM377 515q0 -107 63 -207q64 -99 188 -99q104 0 174 82q71 83 71 249q0 150 -71 232q-70 81 -174 81
q-110 0 -181 -83q-70 -82 -70 -255z" />
    <glyph glyph-name="Scaron" unicode="&#x160;" horiz-adv-x="1366" 
d="M74 477l288 28q26 -144 105 -212.5t215 -68.5q143 0 215 60q73 61 73 142q0 53 -31.5 89.5t-105.5 62.5q-47 16 -237 64q-236 58 -334 145q-135 121 -135 295q0 112 63 209q65 98 183 149q120 51 289 51q276 0 415 -121q140 -122 147 -323l-296 -13q-19 113 -81.5 162.5
t-187.5 49.5q-128 0 -202 -53q-47 -35 -47 -91q0 -51 44 -89q56 -47 272 -98q217 -51 319 -106q221 -114 221 -382q0 -127 -70 -236q-71 -110 -198 -164q-129 -53 -319 -53q-545 0 -605 503zM334 1798h227l108 -149l116 149h226l-207 -295h-260z" />
    <glyph glyph-name="scaron" unicode="&#x161;" 
d="M48 303l282 43q37 -167 227 -167q109 0 164 40q37 28 37 75q0 31 -20 53q-23 21 -94 37q-338 74 -431 137q-126 85 -126 239q0 138 109 232t338 94q217 0 324 -71q105 -70 146 -210l-265 -49q-35 128 -200 128q-112 0 -159 -31q-32 -23 -32 -57q0 -30 28 -51
q36 -27 262 -79q225 -51 314 -125q88 -75 88 -209q0 -146 -122 -251t-361 -105q-212 0 -340.5 86t-168.5 241zM205 1491h227l108 -149l116 149h226l-207 -295h-260z" />
    <glyph glyph-name="Ydieresis" unicode="&#x178;" horiz-adv-x="1366" 
d="M534 0v617l-537 849h347l345 -580l338 580h341l-539 -851v-615h-295zM350 1550v241h241v-241h-241zM780 1550v241h242v-241h-242z" />
    <glyph glyph-name="florin" unicode="&#x192;" 
d="M276 851l36 211h202l16 89q28 152 48 196q31 64 88 100q74 44 209 44q133 0 267 -41l-54 -226q-93 28 -158 28q-54 0 -80 -24q-27 -25 -43 -110l-11 -56h208l-37 -211h-205l-173 -978q-19 -117 -53 -177q-30 -56 -97 -92q-65 -35 -179 -35q-157 0 -280 40l57 221
q112 -23 167 -23q61 0 87 38q21 30 37 133l150 873h-202z" />
    <glyph glyph-name="circumflex" unicode="&#x2c6;" horiz-adv-x="682" 
d="M3 1196l210 295h260l207 -295h-226l-116 149l-108 -149h-227z" />
    <glyph glyph-name="caron" unicode="&#x2c7;" horiz-adv-x="682" 
d="M3 1491h227l108 -149l116 149h226l-207 -295h-260z" />
    <glyph glyph-name="breve" unicode="&#x2d8;" horiz-adv-x="682" 
d="M513 1491h137q-12 -136 -96 -214q-83 -77 -216 -77q-132 0 -217 77q-83 79 -95 214h137q14 -144 175 -144t175 144z" />
    <glyph glyph-name="dotaccent" unicode="&#x2d9;" horiz-adv-x="682" 
d="M205 1225v266h276v-266h-276z" />
    <glyph glyph-name="ring" unicode="&#x2da;" horiz-adv-x="682" 
d="M537 1342q0 -81 -58 -139q-57 -57 -138 -57t-139 57q-57 59 -57 139q0 81 57 138q58 58 139 58t138 -57q58 -57 58 -139zM430 1342q0 37 -26 63t-63 26t-63 -26t-26 -63t26 -63t63 -26t63 26t26 63z" />
    <glyph glyph-name="ogonek" unicode="&#x2db;" horiz-adv-x="682" 
d="M196 26h150q-20 -57 -20 -144q0 -158 143 -158q61 0 136 23v-135q-99 -43 -194 -43q-118 0 -184.5 62.5t-66.5 171.5q0 83 36 223z" />
    <glyph glyph-name="tilde" unicode="&#x2dc;" horiz-adv-x="682" 
d="M116 1205h-128q-1 15 -1 36q0 103 50 160.5t132 57.5q33 0 65 -8q31 -8 109 -43q81 -35 125 -35q70 0 81 87h130q-1 -134 -51 -193q-49 -58 -127 -58q-36 0 -67 7q-21 6 -115 41q-93 35 -134 35q-68 0 -69 -87z" />
    <glyph glyph-name="hungarumlaut" unicode="&#x2dd;" horiz-adv-x="682" 
d="M96 1197l139 298h294l-257 -298h-176zM472 1197l141 298h286l-247 -298h-180z" />
    <glyph glyph-name="pi" unicode="&#x3c0;" horiz-adv-x="1124" 
d="M0 1063h1124v-202h-169v-861h-288v861h-208v-861h-292v861h-167v202z" />
    <glyph glyph-name="endash" unicode="&#x2013;" 
d="M-4 426v210h1139v-210h-1139z" />
    <glyph glyph-name="emdash" unicode="&#x2014;" horiz-adv-x="2048" 
d="M0 426v210h2048v-210h-2048z" />
    <glyph glyph-name="quoteleft" unicode="&#x2018;" horiz-adv-x="569" 
d="M433 872h-281v201q0 121 21 192q23 73 80 127q60 57 148 88l55 -116q-83 -27 -120 -77t-39 -134h136v-281z" />
    <glyph glyph-name="quoteright" unicode="&#x2019;" horiz-adv-x="569" 
d="M140 1462h281v-201q0 -121 -21 -192t-80 -127q-60 -57 -148 -88l-55 116q84 28 120.5 76.5t38.5 134.5h-136v281z" />
    <glyph glyph-name="quotesinglbase" unicode="&#x201a;" horiz-adv-x="569" 
d="M140 281h281v-201q0 -122 -21 -192q-21 -71 -80 -127q-60 -57 -148 -88l-55 116q84 28 120.5 76.5t38.5 134.5h-136v281z" />
    <glyph glyph-name="quotedblleft" unicode="&#x201c;" horiz-adv-x="1024" 
d="M413 872h-281v201q0 121 21 192q23 73 80 127q60 57 148 88l55 -116q-83 -27 -120 -77t-39 -134h136v-281zM882 872h-281v201q0 123 21 193q23 72 80 126q60 57 148 88l55 -116q-83 -27 -120 -77t-39 -134h136v-281z" />
    <glyph glyph-name="quotedblright" unicode="&#x201d;" horiz-adv-x="1024" 
d="M600 1466h281v-202q0 -123 -22 -192q-21 -69 -80 -127q-60 -57 -147 -88l-55 117q83 28 120 77.5t38 133.5h-135v281zM128 1466h281v-202q0 -122 -21 -192q-21 -69 -80 -127q-60 -57 -148 -88l-55 117q84 27 120.5 77t38.5 134h-136v281z" />
    <glyph glyph-name="quotedblbase" unicode="&#x201e;" horiz-adv-x="1024" 
d="M600 281h281v-202q0 -123 -22 -192q-21 -69 -80 -127q-60 -57 -147 -88l-55 117q83 28 120 77.5t38 133.5h-135v281zM128 281h281v-202q0 -121 -21 -192q-21 -69 -80 -127q-60 -57 -148 -88l-55 117q84 27 120.5 77t38.5 134h-136v281z" />
    <glyph glyph-name="dagger" unicode="&#x2020;" 
d="M433 -350v1180h-365v232h365v386h263v-386h363v-232h-363v-1180h-263z" />
    <glyph glyph-name="daggerdbl" unicode="&#x2021;" 
d="M436 -350v333h-368v233h368v656h-368v233h368v343h262v-343h361v-233h-361v-656h361v-233h-361v-333h-262z" />
    <glyph glyph-name="bullet" unicode="&#x2022;" horiz-adv-x="717" 
d="M657 724q0 -123 -87 -210q-86 -86 -208 -86q-123 0 -210 87q-86 88 -86 209q0 122 86 208q87 87 210 87q122 0 208 -86q87 -85 87 -209z" />
    <glyph glyph-name="ellipsis" unicode="&#x2026;" horiz-adv-x="2048" 
d="M1566 0v281h282v-281h-282zM884 0v281h281v-281h-281zM201 0v281h281v-281h-281z" />
    <glyph glyph-name="perthousand" unicode="&#x2030;" horiz-adv-x="2048" 
d="M1 1119q0 186 81 279t209 93q127 0 207 -92q81 -91 81 -282q0 -206 -80 -301q-79 -93 -210 -93t-210 91q-78 92 -78 305zM196 1107q0 -106 15 -158q21 -70 77 -70t78 70q15 52 15 158q0 105 -15 158q-22 70 -78 70q-55 0 -77 -70q-15 -53 -15 -158zM280 -52l613 1543h196
l-612 -1543h-197zM799 338q0 186 81 279t209 93q127 0 207 -92t80 -281q0 -207 -80 -302q-79 -94 -209 -94q-132 0 -210 91q-78 92 -78 306zM993 326q0 -107 16 -158q21 -70 77 -70q57 0 77 70q16 51 16 158q0 106 -16 158q-21 70 -77 70q-57 0 -77 -71q-16 -51 -16 -157z
M1469 338q0 186 81 279t209 93q127 0 207 -92q81 -92 81 -281q0 -207 -80 -302q-79 -94 -210 -94t-210 91q-78 92 -78 306zM1664 326q-2 -100 3 -123q9 -53 32.5 -79.5t55.5 -26.5q56 0 79 70q15 54 15 159q0 104 -15 158q-22 70 -77 70q-56 0 -78 -71q-15 -53 -15 -157z
" />
    <glyph glyph-name="guilsinglleft" unicode="&#x2039;" horiz-adv-x="682" 
d="M612 983l-260 -451l260 -462h-221l-316 462l316 451h221z" />
    <glyph glyph-name="guilsinglright" unicode="&#x203a;" horiz-adv-x="682" 
d="M75 70l260 452l-260 461h221l316 -461l-316 -452h-221z" />
    <glyph glyph-name="fraction" unicode="&#x2044;" horiz-adv-x="342" 
d="M-184 -54h-159l869 1538h159z" />
    <glyph glyph-name="trademark" unicode="&#x2122;" horiz-adv-x="2048" 
d="M469 647v677h-253v142h665v-142h-246v-677h-166zM980 647v819h259l149 -564l150 564h259v-819h-158v653l-177 -653h-150l-176 653v-653h-156z" />
    <glyph glyph-name="Omega" unicode="&#x2126;" horiz-adv-x="1573" 
d="M462 206q-117 50 -185 112q-200 178 -200 493q0 310 191 501q193 191 509 191q233 0 389.5 -79t249.5 -245q94 -164 94 -366q0 -203 -94 -361q-94 -159 -288 -244l330 23h72v-231h-642v243q98 47 153 105q75 79 114 193t39 243q0 248 -115 373q-114 127 -292 127
q-170 0 -285 -130q-114 -129 -114 -365q0 -136 43.5 -253t124.5 -198q51 -51 144 -95v-243h-645v230h98z" />
    <glyph glyph-name="partialdiff" unicode="&#x2202;" horiz-adv-x="1012" 
d="M379 1123l-137 84q51 139 148.5 211.5t221.5 72.5q146 0 234 -100q131 -146 131 -448q0 -260 -83 -506q-82 -244 -230 -354q-147 -108 -309 -108q-138 0 -225 92q-86 92 -86 262q0 157 87 303q86 144 266 230q176 85 429 80q-2 201 -74 296q-54 71 -145 71
q-69 0 -121 -40q-51 -39 -107 -146zM814 758q-19 1 -44 1q-136 0 -256 -56q-119 -56 -180 -158q-61 -103 -61 -207q0 -78 42 -126q42 -47 99 -47q120 0 217 115q141 165 183 478z" />
    <glyph glyph-name="product" unicode="&#x220f;" horiz-adv-x="1686" 
d="M161 1491h1362v-1922h-191v1748h-978v-1748h-193v1922z" />
    <glyph glyph-name="summation" unicode="&#x2211;" horiz-adv-x="1460" 
d="M139 1491h1237v-164h-988l607 -775l-649 -822h1040v-161h-1264v187l620 788l-603 772v175z" />
    <glyph glyph-name="radical" unicode="&#x221a;" horiz-adv-x="1124" 
d="M1050 1869h74l-312 -1947l-496 1021l-198 -91l-34 64l301 151l405 -823z" />
    <glyph glyph-name="infinity" unicode="&#x221e;" horiz-adv-x="1460" 
d="M681 843q74 120 150.5 174t172.5 54q132 0 219 -94q88 -92 88 -255q0 -162 -88 -256q-87 -93 -219 -93q-95 0 -172 53.5t-151 174.5q-61 -85 -138 -128q-79 -44 -149 -44q-102 0 -172 78q-70 79 -70 215q0 137 70 214q70 78 172 78q70 0 149 -44q77 -43 138 -127z
M774 724q85 -131 118 -158q52 -45 115 -45q76 0 117 59t41 146q0 93 -45 146q-45 52 -110 52q-50 0 -103 -36q-49 -35 -133 -164zM595 726q-100 141 -190 141q-48 0 -80.5 -38t-32.5 -102q0 -66 32 -105t81 -39q38 0 70 21q53 35 120 122z" />
    <glyph glyph-name="integral" unicode="&#x222b;" horiz-adv-x="561" 
d="M201 948l17 531q9 152 50 254q26 62 72.5 96t94.5 34q50 0 87 -34q38 -33 38 -73q0 -47 -26 -75.5t-66 -28.5q-36 0 -76 36q-23 20 -40 20q-40 0 -40 -64q0 -41 9 -145q37 -404 37 -665q0 -83 -16 -588q-8 -296 -90 -399q-54 -67 -134 -67q-52 0 -85 34t-33 87
q0 45 25.5 72t64.5 27q40 0 69 -32t49 -32q39 0 39 61q0 42 -9 120q-37 311 -37 831z" />
    <glyph glyph-name="approxequal" unicode="&#x2248;" horiz-adv-x="1124" 
d="M31 761v258q127 138 296 138q65 0 116 -13q57 -13 166 -58q107 -43 149 -55q34 -10 62 -10q60 0 133.5 36.5t139.5 108.5v-270q-46 -47 -129 -91q-82 -42 -170 -42q-50 0 -98 12q-46 12 -150 57q-153 67 -242 67q-140 0 -273 -138zM31 276v259q128 137 296 137
q65 0 116 -13q55 -13 166 -57q107 -43 149 -55q34 -10 62 -10q60 0 133.5 36.5t139.5 107.5v-270q-46 -47 -129 -91q-82 -42 -170 -42q-50 0 -98 12q-50 15 -150 58q-153 67 -242 67q-140 0 -273 -139z" />
    <glyph glyph-name="notequal" unicode="&#x2260;" horiz-adv-x="1124" 
d="M422 631l68 185h-441v258h537l148 398h211l-148 -398h277v-258h-374l-69 -185h443v-259h-540l-149 -397h-207l148 397h-277v259h373z" />
    <glyph glyph-name="lessequal" unicode="&#x2264;" horiz-adv-x="1124" 
d="M1065 336l-1005 437v242l1005 435v-285l-701 -268l701 -279v-282zM60 0v263h1005v-263h-1005z" />
    <glyph glyph-name="greaterequal" unicode="&#x2265;" horiz-adv-x="1124" 
d="M60 338v282l702 277l-702 272v281l1005 -434v-241zM60 0v263h1005v-263h-1005z" />
    <glyph glyph-name="lozenge" unicode="&#x25ca;" horiz-adv-x="1012" 
d="M549 1422l418 -713l-418 -709h-111l-391 709l391 713h111zM495 1325l-340 -616l340 -615l359 615z" />
    <glyph glyph-name="CR" unicode="&#xe000;" horiz-adv-x="569" 
 />
    <glyph glyph-name="NULL" unicode="&#xe001;" horiz-adv-x="0" 
 />
    <glyph glyph-name="increment" unicode="&#xe002;" horiz-adv-x="1253" 
d="M1226 0h-1200l628 1387zM990 82l-399 967l-440 -967h839z" />
    </font>
</defs>
</svg>
